  0
SECTION
  2
HEADER
  9
$ACADVER
  1
AC1015
  9
$ACADMAINTVER
 70
     6
  9
$DWGCODEPAGE
  3
ANSI_1252
  9
$INSBASE
 10
0.0
 20
0.0
 30
0.0
  9
$EXTMIN
 10
9.99999999999998
 20
9.99999999999995
 30
0.0
  9
$EXTMAX
 10
287.0
 20
210.0
 30
0.0
  9
$LIMMIN
 10
0.0
 20
0.0
  9
$LIMMAX
 10
12.0
 20
9.0
  9
$ORTHOMODE
 70
     0
  9
$REGENMODE
 70
     1
  9
$FILLMODE
 70
     1
  9
$QTEXTMODE
 70
     0
  9
$MIRRTEXT
 70
     1
  9
$LTSCALE
 40
1.0
  9
$ATTMODE
 70
     1
  9
$TEXTSIZE
 40
0.2
  9
$TRACEWID
 40
0.05
  9
$TEXTSTYLE
  7
Standard
  9
$CLAYER
  8
0
  9
$CELTYPE
  6
ByLayer
  9
$CECOLOR
 62
   256
  9
$CELTSCALE
 40
1.0
  9
$DISPSILH
 70
     0
  9
$DIMSCALE
 40
1.0
  9
$DIMASZ
 40
0.18
  9
$DIMEXO
 40
0.0625
  9
$DIMDLI
 40
0.38
  9
$DIMRND
 40
0.0
  9
$DIMDLE
 40
0.0
  9
$DIMEXE
 40
0.18
  9
$DIMTP
 40
0.0
  9
$DIMTM
 40
0.0
  9
$DIMTXT
 40
0.18
  9
$DIMCEN
 40
0.09
  9
$DIMTSZ
 40
0.0
  9
$DIMTOL
 70
     0
  9
$DIMLIM
 70
     0
  9
$DIMTIH
 70
     1
  9
$DIMTOH
 70
     1
  9
$DIMSE1
 70
     0
  9
$DIMSE2
 70
     0
  9
$DIMTAD
 70
     0
  9
$DIMZIN
 70
     0
  9
$DIMBLK
  1

  9
$DIMASO
 70
     1
  9
$DIMSHO
 70
     1
  9
$DIMPOST
  1

  9
$DIMAPOST
  1

  9
$DIMALT
 70
     0
  9
$DIMALTD
 70
     2
  9
$DIMALTF
 40
25.4
  9
$DIMLFAC
 40
1.0
  9
$DIMTOFL
 70
     0
  9
$DIMTVP
 40
0.0
  9
$DIMTIX
 70
     0
  9
$DIMSOXD
 70
     0
  9
$DIMSAH
 70
     0
  9
$DIMBLK1
  1

  9
$DIMBLK2
  1

  9
$DIMSTYLE
  2
Standard
  9
$DIMCLRD
 70
     0
  9
$DIMCLRE
 70
     0
  9
$DIMCLRT
 70
     0
  9
$DIMTFAC
 40
1.0
  9
$DIMGAP
 40
0.09
  9
$DIMJUST
 70
     0
  9
$DIMSD1
 70
     0
  9
$DIMSD2
 70
     0
  9
$DIMTOLJ
 70
     1
  9
$DIMTZIN
 70
     0
  9
$DIMALTZ
 70
     0
  9
$DIMALTTZ
 70
     0
  9
$DIMUPT
 70
     0
  9
$DIMDEC
 70
     4
  9
$DIMTDEC
 70
     4
  9
$DIMALTU
 70
     2
  9
$DIMALTTD
 70
     2
  9
$DIMTXSTY
  7
Standard
  9
$DIMAUNIT
 70
     0
  9
$DIMADEC
 70
     0
  9
$DIMALTRND
 40
0.0
  9
$DIMAZIN
 70
     0
  9
$DIMDSEP
 70
    46
  9
$DIMATFIT
 70
     3
  9
$DIMFRAC
 70
     0
  9
$DIMLDRBLK
  1

  9
$DIMLUNIT
 70
     2
  9
$DIMLWD
 70
    -2
  9
$DIMLWE
 70
    -2
  9
$DIMTMOVE
 70
     0
  9
$LUNITS
 70
     2
  9
$LUPREC
 70
     4
  9
$SKETCHINC
 40
0.1
  9
$FILLETRAD
 40
0.5
  9
$AUNITS
 70
     0
  9
$AUPREC
 70
     0
  9
$MENU
  1
.
  9
$ELEVATION
 40
0.0
  9
$PELEVATION
 40
0.0
  9
$THICKNESS
 40
0.0
  9
$LIMCHECK
 70
     0
  9
$CHAMFERA
 40
0.5
  9
$CHAMFERB
 40
0.5
  9
$CHAMFERC
 40
1.0
  9
$CHAMFERD
 40
0.0
  9
$SKPOLY
 70
     0
  9
$TDCREATE
 40
2456315.378778877
  9
$TDUCREATE
 40
2456315.337112211
  9
$TDUPDATE
 40
2456315.378778889
  9
$TDUUPDATE
 40
2456315.337112222
  9
$TDINDWG
 40
0.0000000116
  9
$TDUSRTIMER
 40
0.0000000116
  9
$USRTIMER
 70
     1
  9
$ANGBASE
 50
0.0
  9
$ANGDIR
 70
     0
  9
$PDMODE
 70
     0
  9
$PDSIZE
 40
0.0
  9
$PLINEWID
 40
0.0
  9
$SPLFRAME
 70
     0
  9
$SPLINETYPE
 70
     6
  9
$SPLINESEGS
 70
     8
  9
$HANDSEED
  5
327
  9
$SURFTAB1
 70
     6
  9
$SURFTAB2
 70
     6
  9
$SURFTYPE
 70
     6
  9
$SURFU
 70
     6
  9
$SURFV
 70
     6
  9
$UCSBASE
  2

  9
$UCSNAME
  2

  9
$UCSORG
 10
0.0
 20
0.0
 30
0.0
  9
$UCSXDIR
 10
1.0
 20
0.0
 30
0.0
  9
$UCSYDIR
 10
0.0
 20
1.0
 30
0.0
  9
$UCSORTHOREF
  2

  9
$UCSORTHOVIEW
 70
     0
  9
$UCSORGTOP
 10
0.0
 20
0.0
 30
0.0
  9
$UCSORGBOTTOM
 10
0.0
 20
0.0
 30
0.0
  9
$UCSORGLEFT
 10
0.0
 20
0.0
 30
0.0
  9
$UCSORGRIGHT
 10
0.0
 20
0.0
 30
0.0
  9
$UCSORGFRONT
 10
0.0
 20
0.0
 30
0.0
  9
$UCSORGBACK
 10
0.0
 20
0.0
 30
0.0
  9
$PUCSBASE
  2

  9
$PUCSNAME
  2

  9
$PUCSORG
 10
0.0
 20
0.0
 30
0.0
  9
$PUCSXDIR
 10
1.0
 20
0.0
 30
0.0
  9
$PUCSYDIR
 10
0.0
 20
1.0
 30
0.0
  9
$PUCSORTHOREF
  2

  9
$PUCSORTHOVIEW
 70
     0
  9
$PUCSORGTOP
 10
0.0
 20
0.0
 30
0.0
  9
$PUCSORGBOTTOM
 10
0.0
 20
0.0
 30
0.0
  9
$PUCSORGLEFT
 10
0.0
 20
0.0
 30
0.0
  9
$PUCSORGRIGHT
 10
0.0
 20
0.0
 30
0.0
  9
$PUCSORGFRONT
 10
0.0
 20
0.0
 30
0.0
  9
$PUCSORGBACK
 10
0.0
 20
0.0
 30
0.0
  9
$USERI1
 70
     0
  9
$USERI2
 70
     0
  9
$USERI3
 70
     0
  9
$USERI4
 70
     0
  9
$USERI5
 70
     0
  9
$USERR1
 40
18.0
  9
$USERR2
 40
0.0
  9
$USERR3
 40
0.0
  9
$USERR4
 40
0.0
  9
$USERR5
 40
0.0
  9
$WORLDVIEW
 70
     1
  9
$SHADEDGE
 70
     3
  9
$SHADEDIF
 70
    70
  9
$TILEMODE
 70
     1
  9
$MAXACTVP
 70
    64
  9
$PINSBASE
 10
0.0
 20
0.0
 30
0.0
  9
$PLIMCHECK
 70
     0
  9
$PEXTMIN
 10
1.00000000000000E+20
 20
1.00000000000000E+20
 30
1.00000000000000E+20
  9
$PEXTMAX
 10
-1.00000000000000E+20
 20
-1.00000000000000E+20
 30
-1.00000000000000E+20
  9
$PLIMMIN
 10
0.0
 20
0.0
  9
$PLIMMAX
 10
12.0
 20
9.0
  9
$UNITMODE
 70
     0
  9
$VISRETAIN
 70
     1
  9
$PLINEGEN
 70
     0
  9
$PSLTSCALE
 70
     1
  9
$TREEDEPTH
 70
  3020
  9
$CMLSTYLE
  2
Standard
  9
$CMLJUST
 70
     0
  9
$CMLSCALE
 40
1.0
  9
$PROXYGRAPHICS
 70
     1
  9
$MEASUREMENT
 70
     1
  9
$CELWEIGHT
370
    -1
  9
$ENDCAPS
280
     0
  9
$JOINSTYLE
280
     0
  9
$LWDISPLAY
290
     0
  9
$INSUNITS
 70
     1
  9
$HYPERLINKBASE
  1

  9
$STYLESHEET
  1

  9
$XEDIT
290
     1
  9
$CEPSNTYPE
380
     0
  9
$PSTYLEMODE
290
     1
  9
$FINGERPRINTGUID
  2
{756E03B5-B237-44EF-BC84-21BFDB5D7015}
  9
$VERSIONGUID
  2
{FAEB1C32-E019-11D5-929B-00C0DF256EC4}
  9
$EXTNAMES
290
     1
  9
$PSVPSCALE
 40
0.0
  9
$OLESTARTUP
290
     0
  0
ENDSEC
  0
SECTION
  2
CLASSES
  0
CLASS
  1
ACDBDICTIONARYWDFLT
  2
AcDbDictionaryWithDefault
  3
ObjectDBX Classes
 90
        0
280
     0
281
     0
  0
CLASS
  1
VISUALSTYLE
  2
AcDbVisualStyle
  3
ObjectDBX Classes
 90
     4095
280
     0
281
     0
  0
CLASS
  1
MATERIAL
  2
AcDbMaterial
  3
ObjectDBX Classes
 90
     1153
280
     0
281
     0
  0
CLASS
  1
SCALE
  2
AcDbScale
  3
ObjectDBX Classes
 90
     1153
280
     0
281
     0
  0
CLASS
  1

  2
exOdDbCircle
  3

 90
        0
280
     0
281
     1
  0
CLASS
  1

  2
exOdDbSpline
  3

 90
        0
280
     0
281
     1
  0
CLASS
  1

  2
exOdDbPolyline
  3

 90
        0
280
     0
281
     1
  0
CLASS
  1
DICTIONARYVAR
  2
AcDbDictionaryVar
  3
ObjectDBX Classes
 90
        0
280
     0
281
     0
  0
CLASS
  1
ACDBPLACEHOLDER
  2
AcDbPlaceHolder
  3
ObjectDBX Classes
 90
        0
280
     0
281
     0
  0
CLASS
  1
LAYOUT
  2
AcDbLayout
  3
ObjectDBX Classes
 90
        0
280
     0
281
     0
  0
ENDSEC
  0
SECTION
  2
TABLES
  0
TABLE
  2
VPORT
  5
8
330
0
100
AcDbSymbolTable
 70
     1
  0
VPORT
  5
29
330
8
100
AcDbSymbolTableRecord
100
AcDbViewportTableRecord
  2
*Active
 70
     0
 10
0.0
 20
0.0
 11
1.0
 21
1.0
 12
148.5
 22
110.0
 13
0.0
 23
0.0
 14
0.5
 24
0.5
 15
0.5
 25
0.5
 16
0.0
 26
0.0
 36
1.0
 17
0.0
 27
0.0
 37
0.0
 40
220.0000000000001
 41
1.60267857142857
 42
50.0
 43
0.0
 44
0.0
 50
0.0
 51
0.0
 71
     0
 72
   100
 73
     1
 74
     3
 75
     0
 76
     0
 77
     0
 78
     0
281
     0
 65
     1
110
0.0
120
0.0
130
0.0
111
1.0
121
0.0
131
0.0
112
0.0
122
1.0
132
0.0
 79
     0
146
0.0
  0
ENDTAB
  0
TABLE
  2
LTYPE
  5
5
330
0
100
AcDbSymbolTable
 70
     9
  0
LTYPE
  5
14
330
5
100
AcDbSymbolTableRecord
100
AcDbLinetypeTableRecord
  2
ByBlock
 70
     0
  3

 72
    65
 73
     0
 40
0.0
  0
LTYPE
  5
15
330
5
100
AcDbSymbolTableRecord
100
AcDbLinetypeTableRecord
  2
ByLayer
 70
     0
  3

 72
    65
 73
     0
 40
0.0
  0
LTYPE
  5
16
330
5
100
AcDbSymbolTableRecord
100
AcDbLinetypeTableRecord
  2
Continuous
 70
     0
  3
Solid line
 72
    65
 73
     0
 40
0.0
  0
LTYPE
  5
3F
330
5
100
AcDbSymbolTableRecord
100
AcDbLinetypeTableRecord
  2
DASHED
 70
     0
  3
Dashed
 72
    65
 73
     2
 40
15.0
 49
7.0
 74
     0
 49
-8.0
 74
     0
  0
LTYPE
  5
40
330
5
100
AcDbSymbolTableRecord
100
AcDbLinetypeTableRecord
  2
DOTTED
 70
     0
  3
Dotted
 72
    65
 73
     2
 40
1.0
 49
0.0
 74
     0
 49
-1.0
 74
     0
  0
LTYPE
  5
41
330
5
100
AcDbSymbolTableRecord
100
AcDbLinetypeTableRecord
  2
DOT_CENTER
 70
     0
  3
Dot_Center
 72
    65
 73
     4
 40
14.0
 49
12.0
 74
     0
 49
-1.0
 74
     0
 49
0.0
 74
     0
 49
-1.0
 74
     0
  0
LTYPE
  5
42
330
5
100
AcDbSymbolTableRecord
100
AcDbLinetypeTableRecord
  2
LONG_DASHED
 70
     0
  3
Long_Dashed
 72
    65
 73
     2
 40
15.0
 49
10.0
 74
     0
 49
-5.0
 74
     0
  0
LTYPE
  5
43
330
5
100
AcDbSymbolTableRecord
100
AcDbLinetypeTableRecord
  2
DASH_CENTER
 70
     0
  3
Dash_Center
 72
    65
 73
     4
 40
14.0
 49
11.0
 74
     0
 49
-1.0
 74
     0
 49
1.0
 74
     0
 49
-1.0
 74
     0
  0
LTYPE
  5
44
330
5
100
AcDbSymbolTableRecord
100
AcDbLinetypeTableRecord
  2
PHANTOM
 70
     0
  3
Phantom
 72
    65
 73
     6
 40
13.0
 49
10.0
 74
     0
 49
-1.0
 74
     0
 49
0.0
 74
     0
 49
-1.0
 74
     0
 49
0.0
 74
     0
 49
-1.0
 74
     0
  0
LTYPE
  5
45
330
5
100
AcDbSymbolTableRecord
100
AcDbLinetypeTableRecord
  2
CENTER_DASH_DASH
 70
     0
  3
Center_Dash_Dash
 72
    65
 73
     6
 40
14.0
 49
9.0
 74
     0
 49
-1.0
 74
     0
 49
1.0
 74
     0
 49
-1.0
 74
     0
 49
1.0
 74
     0
 49
-1.0
 74
     0
  0
LTYPE
  5
46
330
5
100
AcDbSymbolTableRecord
100
AcDbLinetypeTableRecord
  2
CHAIN
 70
     0
  3
CHAIN
 72
    65
 73
     4
 40
4.0
 49
1.0
 74
     0
 49
-1.0
 74
     0
 49
1.0
 74
     0
 49
-1.0
 74
     0
  0
ENDTAB
  0
TABLE
  2
LAYER
  5
2
330
0
100
AcDbSymbolTable
 70
     8
  0
LAYER
  5
10
330
2
100
AcDbSymbolTableRecord
100
AcDbLayerTableRecord
  2
0
 70
     0
 62
     7
  6
Continuous
370
    -3
390
F
  0
LAYER
  5
47
330
2
100
AcDbSymbolTableRecord
100
AcDbLayerTableRecord
  2
Bemaßungen_TC_020513_DIN_
 70
     0
 62
     7
  6
Continuous
370
    -3
390
F
  0
LAYER
  5
48
330
2
100
AcDbSymbolTableRecord
100
AcDbLayerTableRecord
  2
Mittellinie_TC_020513_DIN_
 70
     0
 62
     7
  6
Continuous
370
    -3
390
F
  0
LAYER
  5
49
330
2
100
AcDbSymbolTableRecord
100
AcDbLayerTableRecord
  2
Mittelpunktmarkierung_TC_020513_DIN_
 70
     0
 62
     7
  6
Continuous
370
    -3
390
F
  0
LAYER
  5
4A
330
2
100
AcDbSymbolTableRecord
100
AcDbLayerTableRecord
  2
Schraffur
 70
     0
 62
     7
  6
Continuous
370
    -3
390
F
  0
LAYER
  5
4B
330
2
100
AcDbSymbolTableRecord
100
AcDbLayerTableRecord
  2
Sichtbare_Kanten_TC_020513_DIN_
 70
     0
 62
     7
  6
Continuous
370
    -3
390
F
  0
LAYER
  5
4C
330
2
100
AcDbSymbolTableRecord
100
AcDbLayerTableRecord
  2
Skizziergeometrie_ISO_
 70
     0
 62
     7
  6
Continuous
370
    -3
390
F
  0
LAYER
  5
4D
330
2
100
AcDbSymbolTableRecord
100
AcDbLayerTableRecord
  2
Symbole_ISO_
 70
     0
 62
     7
  6
Continuous
370
    -3
390
F
  0
ENDTAB
  0
TABLE
  2
STYLE
  5
3
330
0
100
AcDbSymbolTable
 70
     5
  0
STYLE
  5
11
330
3
100
AcDbSymbolTableRecord
100
AcDbTextStyleTableRecord
  2
Standard
 70
     0
 40
0.0
 41
1.0
 50
0.0
 71
     0
 42
0.2
  3
txt
  4

  0
STYLE
  5
D6
330
3
100
AcDbSymbolTableRecord
100
AcDbTextStyleTableRecord
  2
CONVERTER_11
 70
     0
 40
0.0
 41
0.59999996423721
 50
0.0
 71
     0
 42
0.2
  3
txt.shx
  4

  0
STYLE
  5
D8
330
3
100
AcDbSymbolTableRecord
100
AcDbTextStyleTableRecord
  2
CONVERTER_12
 70
     0
 40
0.0
 41
0.67499998211861
 50
0.0
 71
     0
 42
0.2
  3
txt.shx
  4

  0
STYLE
  5
2B4
330
3
100
AcDbSymbolTableRecord
100
AcDbTextStyleTableRecord
  2
CONVERTER_13
 70
     0
 40
0.0
 41
0.89999994635582
 50
0.0
 71
     0
 42
0.2
  3
txt.shx
  4

  0
STYLE
  5
2BE
330
3
100
AcDbSymbolTableRecord
100
AcDbTextStyleTableRecord
  2
CONVERTER_14
 70
     0
 40
0.0
 41
0.75
 50
0.0
 71
     0
 42
0.2
  3
txt.shx
  4

  0
ENDTAB
  0
TABLE
  2
VIEW
  5
6
330
0
100
AcDbSymbolTable
 70
     0
  0
ENDTAB
  0
TABLE
  2
UCS
  5
7
330
0
100
AcDbSymbolTable
 70
     0
  0
ENDTAB
  0
TABLE
  2
APPID
  5
9
330
0
100
AcDbSymbolTable
 70
     1
  0
APPID
  5
12
330
9
100
AcDbSymbolTableRecord
100
AcDbRegAppTableRecord
  2
ACAD
 70
     0
  0
ENDTAB
  0
TABLE
  2
DIMSTYLE
  5
A
330
0
100
AcDbSymbolTable
 70
     7
100
AcDbDimStyleTable
  0
DIMSTYLE
105
27
330
A
100
AcDbSymbolTableRecord
100
AcDbDimStyleTableRecord
  2
Standard
 70
     0
340
11
  0
DIMSTYLE
105
2C2
102
{ACAD_REACTORS
330
2C3
102
}
330
A
100
AcDbSymbolTableRecord
100
AcDbDimStyleTableRecord
  2
ME10_DIM_10
 70
     0
 41
2.5
 42
1.0
 44
2.0
 73
     0
 74
     0
 77
     1
 78
    12
140
3.5
147
0.8
172
     1
173
     1
174
     1
175
     1
176
     7
177
     7
178
     7
271
     2
340
2BE
  0
DIMSTYLE
105
2CD
102
{ACAD_REACTORS
330
2CE
102
}
330
A
100
AcDbSymbolTableRecord
100
AcDbDimStyleTableRecord
  2
ME10_DIM_11
 70
     0
 41
2.5
 42
1.0
 44
2.0
 73
     0
 74
     0
 77
     1
 78
    12
140
3.5
147
0.8
172
     1
173
     1
174
     1
175
     1
176
     7
177
     7
178
     7
271
     2
340
2BE
  0
DIMSTYLE
105
2D8
102
{ACAD_REACTORS
330
2D9
102
}
330
A
100
AcDbSymbolTableRecord
100
AcDbDimStyleTableRecord
  2
ME10_DIM_12
 70
     0
 41
2.5
 42
1.0
 44
2.0
 73
     0
 74
     0
 77
     1
 78
    12
140
3.5
147
0.8
172
     1
173
     1
174
     1
175
     1
176
     7
177
     7
178
     7
271
     2
340
2BE
  0
DIMSTYLE
105
2E3
102
{ACAD_REACTORS
330
2E4
102
}
330
A
100
AcDbSymbolTableRecord
100
AcDbDimStyleTableRecord
  2
ME10_DIM_13
 70
     0
 41
2.5
 42
1.0
 44
2.0
 73
     0
 74
     0
 77
     1
 78
    12
140
3.5
147
0.8
172
     1
173
     1
174
     1
175
     1
176
     7
177
     7
178
     7
271
     1
340
2BE
  0
DIMSTYLE
105
2EE
102
{ACAD_REACTORS
330
2EF
102
}
330
A
100
AcDbSymbolTableRecord
100
AcDbDimStyleTableRecord
  2
ME10_DIM_14
 70
     0
 41
2.5
 42
1.0
 44
2.0
 73
     0
 74
     0
 77
     1
 78
    12
140
3.5
147
0.8
172
     1
173
     1
174
     1
175
     1
176
     7
177
     7
178
     7
271
     1
340
2BE
  0
DIMSTYLE
105
2F9
102
{ACAD_REACTORS
330
2FA
102
}
330
A
100
AcDbSymbolTableRecord
100
AcDbDimStyleTableRecord
  2
ME10_DIM_15
 70
     0
 41
2.5
 42
1.0
 44
2.0
 73
     0
 74
     0
 77
     1
 78
    12
140
3.5
147
0.8
172
     1
173
     1
174
     1
175
     1
176
     7
177
     7
178
     7
271
     2
340
2BE
  0
ENDTAB
  0
TABLE
  2
BLOCK_RECORD
  5
1
330
0
100
AcDbSymbolTable
 70
     9
  0
BLOCK_RECORD
  5
1F
330
1
100
AcDbSymbolTableRecord
100
AcDbBlockTableRecord
  2
*Model_Space
340
22
  0
BLOCK_RECORD
  5
1B
330
1
100
AcDbSymbolTableRecord
100
AcDbBlockTableRecord
  2
*Paper_Space
340
1E
  0
BLOCK_RECORD
  5
23
330
1
100
AcDbSymbolTableRecord
100
AcDbBlockTableRecord
  2
*Paper_Space0
340
26
  0
BLOCK_RECORD
  5
4E
330
1
100
AcDbSymbolTableRecord
100
AcDbBlockTableRecord
  2
Schriftfelder_Ilme
340
0
102
{BLKREFS
331
76
102
}
  0
BLOCK_RECORD
  5
51
330
1
100
AcDbSymbolTableRecord
100
AcDbBlockTableRecord
  2
Ränder_Ilme_Rahmen_A4_quer
340
0
102
{BLKREFS
331
77
102
}
  0
BLOCK_RECORD
  5
2B8
330
1
100
AcDbSymbolTableRecord
100
AcDbBlockTableRecord
  2
*D3
340
0
  0
BLOCK_RECORD
  5
2C4
330
1
100
AcDbSymbolTableRecord
100
AcDbBlockTableRecord
  2
*D4
340
0
  0
BLOCK_RECORD
  5
2CF
330
1
100
AcDbSymbolTableRecord
100
AcDbBlockTableRecord
  2
*D5
340
0
  0
BLOCK_RECORD
  5
2DA
330
1
100
AcDbSymbolTableRecord
100
AcDbBlockTableRecord
  2
*D6
340
0
  0
BLOCK_RECORD
  5
2E5
330
1
100
AcDbSymbolTableRecord
100
AcDbBlockTableRecord
  2
*D7
340
0
  0
BLOCK_RECORD
  5
2F0
330
1
100
AcDbSymbolTableRecord
100
AcDbBlockTableRecord
  2
*D8
340
0
  0
ENDTAB
  0
ENDSEC
  0
SECTION
  2
BLOCKS
  0
BLOCK
  5
20
330
1F
100
AcDbEntity
  8
0
100
AcDbBlockBegin
  2
*Model_Space
 70
     0
 10
0.0
 20
0.0
 30
0.0
  3
*Model_Space
  1

  0
ENDBLK
  5
21
330
1F
100
AcDbEntity
  8
0
100
AcDbBlockEnd
  0
BLOCK
  5
1C
330
1B
100
AcDbEntity
 67
     1
  8
0
100
AcDbBlockBegin
  2
*Paper_Space
 70
     0
 10
0.0
 20
0.0
 30
0.0
  3
*Paper_Space
  1

  0
ENDBLK
  5
1D
330
1B
100
AcDbEntity
 67
     1
  8
0
100
AcDbBlockEnd
  0
BLOCK
  5
24
330
23
100
AcDbEntity
  8
0
100
AcDbBlockBegin
  2
*Paper_Space0
 70
     0
 10
0.0
 20
0.0
 30
0.0
  3
*Paper_Space0
  1

  0
ENDBLK
  5
25
330
23
100
AcDbEntity
  8
0
100
AcDbBlockEnd
  0
BLOCK
  5
4F
330
4E
100
AcDbEntity
  8
0
100
AcDbBlockBegin
  2
Schriftfelder_Ilme
 70
     0
 10
0.0
 20
0.0
 30
0.0
  3
Schriftfelder_Ilme
  1

  0
LINE
  5
78
330
4E
100
AcDbEntity
  8
Skizziergeometrie_ISO_
  6
Continuous
 62
     7
100
AcDbLine
 10
19.980189950303
 20
45.0006400926262
 30
0.0
 11
19.980189950303
 21
10.0006400926262
 31
0.0
  0
LINE
  5
79
330
4E
100
AcDbEntity
  8
Skizziergeometrie_ISO_
  6
Continuous
 62
     7
100
AcDbLine
 10
189.655184537377
 20
14.2880685085818
 30
0.0
 11
189.655184537377
 21
19.2535360148728
 31
0.0
  0
LINE
  5
7A
330
4E
100
AcDbEntity
  8
Skizziergeometrie_ISO_
  6
Continuous
 62
     7
100
AcDbLine
 10
189.655184537377
 20
19.2535360148728
 30
0.0
 11
188.7995275176
 21
17.7714945827671
 31
0.0
  0
LINE
  5
7B
330
4E
100
AcDbEntity
  8
Skizziergeometrie_ISO_
  6
Continuous
 62
     7
100
AcDbLine
 10
188.510852383006
 20
17.7714945827671
 30
0.0
 11
187.655195363229
 21
19.2535360148728
 31
0.0
  0
LINE
  5
7C
330
4E
100
AcDbEntity
  8
Skizziergeometrie_ISO_
  6
Continuous
 62
     7
100
AcDbLine
 10
187.655195363229
 20
19.2535360148728
 30
0.0
 11
187.655195363229
 21
15.8473707016896
 31
0.0
  0
LINE
  5
7D
330
4E
100
AcDbEntity
  8
Skizziergeometrie_ISO_
  6
Continuous
 62
     7
100
AcDbLine
 10
180.238754675162
 20
17.6450043569675
 30
0.0
 11
188.655189950303
 21
22.500640092627
 31
0.0
  0
LINE
  5
7E
330
4E
100
AcDbEntity
  8
Skizziergeometrie_ISO_
  6
Continuous
 62
     7
100
AcDbLine
 10
188.655189950303
 20
22.500640092627
 30
0.0
 11
197.071625225444
 21
17.6450043569675
 31
0.0
  0
LINE
  5
7F
330
4E
100
AcDbEntity
  8
Skizziergeometrie_ISO_
  6
Continuous
 62
     7
100
AcDbLine
 10
197.071625225444
 20
17.3562758282849
 30
0.0
 11
188.655189950303
 21
12.5006400926254
 31
0.0
  0
LINE
  5
80
330
4E
100
AcDbEntity
  8
Skizziergeometrie_ISO_
  6
Continuous
 62
     7
100
AcDbLine
 10
188.655189950303
 20
12.5006400926254
 30
0.0
 11
180.238754675162
 21
17.3562758282849
 31
0.0
  0
LINE
  5
81
330
4E
100
AcDbEntity
  8
Skizziergeometrie_ISO_
  6
Continuous
 62
     7
100
AcDbLine
 10
186.988528696563
 20
15.8473707016896
 30
0.0
 11
186.988528696562
 21
20.7526980593071
 31
0.0
  0
LINE
  5
82
330
4E
100
AcDbEntity
  8
Skizziergeometrie_ISO_
  6
Continuous
 62
     7
100
AcDbLine
 10
187.482962380186
 20
20.8851811655447
 30
0.0
 11
188.655189950303
 21
18.8548234560689
 31
0.0
  0
LINE
  5
83
330
4E
100
AcDbEntity
  8
Skizziergeometrie_ISO_
  6
Continuous
 62
     7
100
AcDbLine
 10
190.321851204044
 20
14.2880685085818
 30
0.0
 11
190.321851204044
 21
20.752698059307
 31
0.0
  0
LINE
  5
84
330
4E
100
AcDbEntity
  8
Skizziergeometrie_ISO_
  6
Continuous
 62
     7
100
AcDbLine
 10
189.82741752042
 20
20.8851811655447
 30
0.0
 11
188.655189950303
 21
18.8548234560689
 31
0.0
  0
LINE
  5
85
330
4E
100
AcDbEntity
  8
Skizziergeometrie_ISO_
  6
Continuous
 62
     7
100
AcDbLine
 10
185.655190959106
 20
15.2706619304882
 30
0.0
 11
185.655190959106
 21
19.9439783665993
 31
0.0
  0
LINE
  5
86
330
4E
100
AcDbEntity
  8
Skizziergeometrie_ISO_
  6
Continuous
 62
     7
100
AcDbLine
 10
186.321857625773
 20
19.9439783665993
 30
0.0
 11
186.321857625773
 21
15.270660658657
 31
0.0
  0
LINE
  5
87
330
4E
100
AcDbEntity
  8
Skizziergeometrie_ISO_
  6
Continuous
 62
     7
100
AcDbLine
 10
186.321857625773
 20
15.270660658657
 30
0.0
 11
188.489493932086
 21
14.0201012511681
 31
0.0
  0
LINE
  5
88
330
4E
100
AcDbEntity
  8
Skizziergeometrie_ISO_
  6
Continuous
 62
     7
100
AcDbLine
 10
188.15634562976
 20
13.4426441938023
 30
0.0
 11
185.988710425088
 21
14.6932029657285
 31
0.0
  0
LINE
  5
89
330
4E
100
AcDbEntity
  8
Skizziergeometrie_ISO_
  6
Continuous
 62
     7
100
AcDbLine
 10
184.988523283636
 20
19.1539094835628
 30
0.0
 11
184.988523283636
 21
15.8473707016896
 31
0.0
  0
LINE
  5
8A
330
4E
100
AcDbEntity
  8
Skizziergeometrie_ISO_
  6
Continuous
 62
     7
100
AcDbLine
 10
184.32185661697
 20
15.8473707016896
 30
0.0
 11
184.32185661697
 21
19.1539094835628
 31
0.0
  0
LINE
  5
8B
330
4E
100
AcDbEntity
  8
Skizziergeometrie_ISO_
  6
Continuous
 62
     7
100
AcDbLine
 10
191.48842975933
 20
20.2327068952822
 30
0.0
 11
192.857882489926
 21
19.4426380122457
 31
0.0
  0
LINE
  5
8C
330
4E
100
AcDbEntity
  8
Skizziergeometrie_ISO_
  6
Continuous
 62
     7
100
AcDbLine
 10
192.5247341876
 20
18.8651809548799
 30
0.0
 11
191.6551889415
 21
19.3668416737836
 31
0.0
  0
LINE
  5
8D
330
4E
100
AcDbEntity
  8
Skizziergeometrie_ISO_
  6
Continuous
 62
     7
100
AcDbLine
 10
191.6551889415
 20
19.3668416737836
 30
0.0
 11
191.6551889415
 21
17.8339734259596
 31
0.0
  0
LINE
  5
8E
330
4E
100
AcDbEntity
  8
Skizziergeometrie_ISO_
  6
Continuous
 62
     7
100
AcDbLine
 10
191.6551889415
 20
17.8339734259596
 30
0.0
 11
192.691308338763
 21
17.8339734259596
 31
0.0
  0
LINE
  5
8F
330
4E
100
AcDbEntity
  8
Skizziergeometrie_ISO_
  6
Continuous
 62
     7
100
AcDbLine
 10
192.691308338763
 20
17.1673067592928
 30
0.0
 11
191.6551889415
 21
17.1673067592928
 31
0.0
  0
LINE
  5
90
330
4E
100
AcDbEntity
  8
Skizziergeometrie_ISO_
  6
Continuous
 62
     7
100
AcDbLine
 10
191.6551889415
 20
17.1673067592928
 30
0.0
 11
191.6551889415
 21
15.6344385114688
 31
0.0
  0
LINE
  5
91
330
4E
100
AcDbEntity
  8
Skizziergeometrie_ISO_
  6
Continuous
 62
     7
100
AcDbLine
 10
191.6551889415
 20
15.6344385114688
 30
0.0
 11
192.5247341876
 21
16.1360992303725
 31
0.0
  0
LINE
  5
92
330
4E
100
AcDbEntity
  8
Skizziergeometrie_ISO_
  6
Continuous
 62
     7
100
AcDbLine
 10
192.857882489926
 20
15.5586421730067
 30
0.0
 11
191.48842975933
 21
14.7685732899702
 31
0.0
  0
LINE
  5
93
330
4E
100
AcDbEntity
  8
Skizziergeometrie_ISO_
  6
Continuous
 62
     7
100
AcDbLine
 10
190.988522274833
 20
15.0573018186531
 30
0.0
 11
190.988522274833
 21
19.9439783665993
 31
0.0
  0
LINE
  5
94
330
4E
100
AcDbEntity
  8
Skizziergeometrie_ISO_
  6
Continuous
 62
     7
100
AcDbLine
 10
177.330189950303
 20
25.0006400926262
 30
0.0
 11
177.330189950303
 21
10.0006400926262
 31
0.0
  0
LINE
  5
95
330
4E
100
AcDbEntity
  8
Skizziergeometrie_ISO_
  6
Continuous
 62
     7
100
AcDbLine
 10
159.980189950303
 20
25.0006400926262
 30
0.0
 11
159.980189950303
 21
10.0006400926262
 31
0.0
  0
LINE
  5
96
330
4E
100
AcDbEntity
  8
Skizziergeometrie_ISO_
  6
Continuous
 62
     7
100
AcDbLine
 10
49.9801899503031
 20
10.0006400926262
 30
0.0
 11
49.9801899503031
 21
25.0006400926262
 31
0.0
  0
LINE
  5
97
330
4E
100
AcDbEntity
  8
Skizziergeometrie_ISO_
  6
Continuous
 62
     7
100
AcDbLine
 10
44.980189950303
 20
45.0006400926262
 30
0.0
 11
44.980189950303
 21
25.0006400926262
 31
0.0
  0
LINE
  5
98
330
4E
100
AcDbEntity
  8
Skizziergeometrie_ISO_
  6
Continuous
 62
     7
100
AcDbLine
 10
26.980189950303
 20
45.0006400926262
 30
0.0
 11
26.980189950303
 21
25.0006400926262
 31
0.0
  0
LINE
  5
99
330
4E
100
AcDbEntity
  8
Skizziergeometrie_ISO_
  6
Continuous
 62
     7
100
AcDbLine
 10
19.980189950303
 20
17.5006400926262
 30
0.0
 11
49.9801899503031
 21
17.5006400926262
 31
0.0
  0
LINE
  5
9A
330
4E
100
AcDbEntity
  8
Skizziergeometrie_ISO_
  6
Continuous
 62
     7
100
AcDbLine
 10
19.980189950303
 20
25.0006400926262
 30
0.0
 11
199.980189950303
 21
25.0006400926262
 31
0.0
  0
LINE
  5
9B
330
4E
100
AcDbEntity
  8
Skizziergeometrie_ISO_
  6
Continuous
 62
     7
100
AcDbLine
 10
19.980189950303
 20
30.0006400926262
 30
0.0
 11
199.980189950303
 21
30.0006400926262
 31
0.0
  0
LINE
  5
9C
330
4E
100
AcDbEntity
  8
Skizziergeometrie_ISO_
  6
Continuous
 62
     7
100
AcDbLine
 10
19.980189950303
 20
35.0006400926262
 30
0.0
 11
199.980189950303
 21
35.0006400926262
 31
0.0
  0
LINE
  5
9D
330
4E
100
AcDbEntity
  8
Skizziergeometrie_ISO_
  6
Continuous
 62
     7
100
AcDbLine
 10
19.980189950303
 20
40.0006400926262
 30
0.0
 11
199.980189950303
 21
40.0006400926262
 31
0.0
  0
LINE
  5
9E
330
4E
100
AcDbEntity
  8
Skizziergeometrie_ISO_
  6
Continuous
 62
     7
100
AcDbLine
 10
19.980189950303
 20
45.0006400926262
 30
0.0
 11
199.980189950303
 21
45.0006400926262
 31
0.0
  0
LINE
  5
9F
102
{ACAD_REACTORS
330
DC
102
}
330
4E
100
AcDbEntity
  8
0
  6
Continuous
 62
     7
100
AcDbLine
 10
192.857882489926
 20
15.5586421730067
 30
0.0
 11
191.48842975933
 21
14.7685732899702
 31
0.0
  0
LINE
  5
A0
102
{ACAD_REACTORS
330
DC
102
}
330
4E
100
AcDbEntity
  8
0
  6
Continuous
 62
     7
100
AcDbLine
 10
190.988522274833
 20
15.0573018186531
 30
0.0
 11
190.988522274833
 21
19.9439783665993
 31
0.0
  0
LINE
  5
A1
102
{ACAD_REACTORS
330
DC
102
}
330
4E
100
AcDbEntity
  8
0
  6
Continuous
 62
     7
100
AcDbLine
 10
191.48842975933
 20
20.2327068952822
 30
0.0
 11
192.857882489926
 21
19.4426380122457
 31
0.0
  0
LINE
  5
A2
102
{ACAD_REACTORS
330
DC
102
}
330
4E
100
AcDbEntity
  8
0
  6
Continuous
 62
     7
100
AcDbLine
 10
192.5247341876
 20
18.8651809548799
 30
0.0
 11
191.6551889415
 21
19.3668416737836
 31
0.0
  0
LINE
  5
A3
102
{ACAD_REACTORS
330
DC
102
}
330
4E
100
AcDbEntity
  8
0
  6
Continuous
 62
     7
100
AcDbLine
 10
191.6551889415
 20
19.3668416737836
 30
0.0
 11
191.6551889415
 21
17.8339734259596
 31
0.0
  0
LINE
  5
A4
102
{ACAD_REACTORS
330
DC
102
}
330
4E
100
AcDbEntity
  8
0
  6
Continuous
 62
     7
100
AcDbLine
 10
191.6551889415
 20
17.8339734259596
 30
0.0
 11
192.691308338763
 21
17.8339734259596
 31
0.0
  0
LINE
  5
A5
102
{ACAD_REACTORS
330
DC
102
}
330
4E
100
AcDbEntity
  8
0
  6
Continuous
 62
     7
100
AcDbLine
 10
192.691308338763
 20
17.1673067592928
 30
0.0
 11
191.6551889415
 21
17.1673067592928
 31
0.0
  0
LINE
  5
A6
102
{ACAD_REACTORS
330
DC
102
}
330
4E
100
AcDbEntity
  8
0
  6
Continuous
 62
     7
100
AcDbLine
 10
191.6551889415
 20
17.1673067592928
 30
0.0
 11
191.6551889415
 21
15.6344385114688
 31
0.0
  0
LINE
  5
A7
102
{ACAD_REACTORS
330
DC
102
}
330
4E
100
AcDbEntity
  8
0
  6
Continuous
 62
     7
100
AcDbLine
 10
191.6551889415
 20
15.6344385114688
 30
0.0
 11
192.5247341876
 21
16.1360992303725
 31
0.0
  0
LINE
  5
A8
102
{ACAD_REACTORS
330
DD
102
}
330
4E
100
AcDbEntity
  8
0
  6
Continuous
 62
     7
100
AcDbLine
 10
186.988528696562
 20
20.7526980593071
 30
0.0
 11
186.988528696563
 21
15.8473707016896
 31
0.0
  0
LINE
  5
A9
102
{ACAD_REACTORS
330
DD
102
}
330
4E
100
AcDbEntity
  8
0
  6
Continuous
 62
     7
100
AcDbLine
 10
187.655195363229
 20
15.8473707016896
 30
0.0
 11
187.655195363229
 21
19.2535360148728
 31
0.0
  0
LINE
  5
AA
102
{ACAD_REACTORS
330
DD
102
}
330
4E
100
AcDbEntity
  8
0
  6
Continuous
 62
     7
100
AcDbLine
 10
187.655195363229
 20
19.2535360148728
 30
0.0
 11
188.510852383006
 21
17.7714945827671
 31
0.0
  0
LINE
  5
AB
102
{ACAD_REACTORS
330
DD
102
}
330
4E
100
AcDbEntity
  8
0
  6
Continuous
 62
     7
100
AcDbLine
 10
188.7995275176
 20
17.7714945827671
 30
0.0
 11
189.655184537377
 21
19.2535360148728
 31
0.0
  0
LINE
  5
AC
102
{ACAD_REACTORS
330
DD
102
}
330
4E
100
AcDbEntity
  8
0
  6
Continuous
 62
     7
100
AcDbLine
 10
189.655184537377
 20
19.2535360148728
 30
0.0
 11
189.655184537377
 21
14.2880685085818
 31
0.0
  0
LINE
  5
AD
102
{ACAD_REACTORS
330
DD
102
}
330
4E
100
AcDbEntity
  8
0
  6
Continuous
 62
     7
100
AcDbLine
 10
190.321851204044
 20
14.2880685085818
 30
0.0
 11
190.321851204044
 21
20.752698059307
 31
0.0
  0
LINE
  5
AE
102
{ACAD_REACTORS
330
DD
102
}
330
4E
100
AcDbEntity
  8
0
  6
Continuous
 62
     7
100
AcDbLine
 10
189.82741752042
 20
20.8851811655447
 30
0.0
 11
188.655189950303
 21
18.8548234560689
 31
0.0
  0
LINE
  5
AF
102
{ACAD_REACTORS
330
DD
102
}
330
4E
100
AcDbEntity
  8
0
  6
Continuous
 62
     7
100
AcDbLine
 10
188.655189950303
 20
18.8548234560689
 30
0.0
 11
187.482962380186
 21
20.8851811655447
 31
0.0
  0
LINE
  5
B0
102
{ACAD_REACTORS
330
DE
102
}
330
4E
100
AcDbEntity
  8
0
  6
Continuous
 62
     7
100
AcDbLine
 10
186.321857625773
 20
15.270660658657
 30
0.0
 11
186.321857625773
 21
19.9439783665993
 31
0.0
  0
LINE
  5
B1
102
{ACAD_REACTORS
330
DE
102
}
330
4E
100
AcDbEntity
  8
0
  6
Continuous
 62
     7
100
AcDbLine
 10
185.655190959106
 20
19.9439783665993
 30
0.0
 11
185.655190959106
 21
15.2706619304882
 31
0.0
  0
LINE
  5
B2
102
{ACAD_REACTORS
330
DE
102
}
330
4E
100
AcDbEntity
  8
0
  6
Continuous
 62
     7
100
AcDbLine
 10
185.988710425088
 20
14.6932029657285
 30
0.0
 11
188.15634562976
 21
13.4426441938023
 31
0.0
  0
LINE
  5
B3
102
{ACAD_REACTORS
330
DE
102
}
330
4E
100
AcDbEntity
  8
0
  6
Continuous
 62
     7
100
AcDbLine
 10
188.489493932086
 20
14.0201012511681
 30
0.0
 11
186.321857625773
 21
15.270660658657
 31
0.0
  0
LINE
  5
B4
102
{ACAD_REACTORS
330
DF
102
}
330
4E
100
AcDbEntity
  8
0
  6
Continuous
 62
     7
100
AcDbLine
 10
184.988523283636
 20
19.1539094835628
 30
0.0
 11
184.988523283636
 21
15.8473707016896
 31
0.0
  0
LINE
  5
B5
102
{ACAD_REACTORS
330
DF
102
}
330
4E
100
AcDbEntity
  8
0
  6
Continuous
 62
     7
100
AcDbLine
 10
184.32185661697
 20
15.8473707016896
 30
0.0
 11
184.32185661697
 21
19.1539094835628
 31
0.0
  0
ARC
  5
B6
330
4E
100
AcDbEntity
  8
Skizziergeometrie_ISO_
  6
Continuous
 62
     7
100
AcDbCircle
 10
188.655189950303
 20
17.8548279161004
 30
0.0
 40
0.1666666666662864
100
AcDbArc
 50
210.0000000000623
 51
329.9999999999426
  0
ARC
  5
B7
330
4E
100
AcDbEntity
  8
Skizziergeometrie_ISO_
  6
Continuous
 62
     7
100
AcDbCircle
 10
186.321859827834
 20
15.2706619304882
 30
0.0
 40
0.66666886872801
100
AcDbArc
 50
180.0
 51
240.0183606311481
  0
ARC
  5
B8
330
4E
100
AcDbEntity
  8
Skizziergeometrie_ISO_
  6
Continuous
 62
     7
100
AcDbCircle
 10
180.322041750744
 20
17.5006400926262
 30
0.0
 40
0.1666666666667581
100
AcDbArc
 50
119.9816393689942
 51
240.0183606310052
  0
ARC
  5
B9
330
4E
100
AcDbEntity
  8
Skizziergeometrie_ISO_
  6
Continuous
 62
     7
100
AcDbCircle
 10
196.988338149862
 20
17.5006400926262
 30
0.0
 40
0.166666666666755
100
AcDbArc
 50
299.9816393689947
 51
60.01836063100586
  0
ARC
  5
BA
330
4E
100
AcDbEntity
  8
Skizziergeometrie_ISO_
  6
Continuous
 62
     7
100
AcDbCircle
 10
191.321855608167
 20
19.9439783665993
 30
0.0
 40
0.3333333333332604
100
AcDbArc
 50
60.01836063118353
 51
180.0
  0
ARC
  5
BB
330
4E
100
AcDbEntity
  8
Skizziergeometrie_ISO_
  6
Continuous
 62
     7
100
AcDbCircle
 10
191.321855608167
 20
15.0573018186531
 30
0.0
 40
0.3333333333339965
100
AcDbArc
 50
180.0
 51
299.9816393688164
  0
ARC
  5
BC
330
4E
100
AcDbEntity
  8
Skizziergeometrie_ISO_
  6
Continuous
 62
     7
100
AcDbCircle
 10
187.253494909038
 20
20.7526980593071
 30
0.0
 40
0.2649662124751274
100
AcDbArc
 50
30.00000000000922
 51
180.0
  0
ARC
  5
BD
330
4E
100
AcDbEntity
  8
Skizziergeometrie_ISO_
  6
Continuous
 62
     7
100
AcDbCircle
 10
187.321862029896
 20
15.8473707016896
 30
0.0
 40
0.3333333333330017
100
AcDbArc
 50
180.0
 51
0.0
  0
ARC
  5
BE
330
4E
100
AcDbEntity
  8
Skizziergeometrie_ISO_
  6
Continuous
 62
     7
100
AcDbCircle
 10
189.98851787071
 20
14.2880685085818
 30
0.0
 40
0.3333333333330017
100
AcDbArc
 50
180.0
 51
0.0
  0
ARC
  5
BF
330
4E
100
AcDbEntity
  8
Skizziergeometrie_ISO_
  6
Continuous
 62
     7
100
AcDbCircle
 10
190.056884991568
 20
20.752698059307
 30
0.0
 40
0.2649662124759971
100
AcDbArc
 50
0.0
 51
149.9999999999752
  0
ARC
  5
C0
330
4E
100
AcDbEntity
  8
Skizziergeometrie_ISO_
  6
Continuous
 62
     7
100
AcDbCircle
 10
185.988524292439
 20
19.9439783665993
 30
0.0
 40
0.3333333333339965
100
AcDbArc
 50
0.0
 51
180.0
  0
ARC
  5
C1
330
4E
100
AcDbEntity
  8
Skizziergeometrie_ISO_
  6
Continuous
 62
     7
100
AcDbCircle
 10
188.322919780923
 20
13.7313727224852
 30
0.0
 40
0.3333333333332604
100
AcDbArc
 50
240.0183606311836
 51
60.01836063118368
  0
ARC
  5
C2
330
4E
100
AcDbEntity
  8
Skizziergeometrie_ISO_
  6
Continuous
 62
     7
100
AcDbCircle
 10
184.655189950303
 20
19.1539094835628
 30
0.0
 40
0.3333333333330017
100
AcDbArc
 50
0.0
 51
180.0
  0
ARC
  5
C3
330
4E
100
AcDbEntity
  8
Skizziergeometrie_ISO_
  6
Continuous
 62
     7
100
AcDbCircle
 10
184.655189950303
 20
15.8473707016896
 30
0.0
 40
0.3333333333330017
100
AcDbArc
 50
180.0
 51
0.0
  0
ARC
  5
C4
330
4E
100
AcDbEntity
  8
Skizziergeometrie_ISO_
  6
Continuous
 62
     7
100
AcDbCircle
 10
192.691308338763
 20
19.1539094835628
 30
0.0
 40
0.3333333333332746
100
AcDbArc
 50
240.0183606311793
 51
60.01836063118353
  0
ARC
  5
C5
330
4E
100
AcDbEntity
  8
Skizziergeometrie_ISO_
  6
Continuous
 62
     7
100
AcDbCircle
 10
192.691308338763
 20
17.5006400926262
 30
0.0
 40
0.3333333333333997
100
AcDbArc
 50
270.0
 51
90.0
  0
ARC
  5
C6
330
4E
100
AcDbEntity
  8
Skizziergeometrie_ISO_
  6
Continuous
 62
     7
100
AcDbCircle
 10
192.691308338763
 20
15.8473707016896
 30
0.0
 40
0.3333333333332619
100
AcDbArc
 50
299.9816393688163
 51
119.9816393688206
  0
ARC
  5
C7
102
{ACAD_REACTORS
330
DC
102
}
330
4E
100
AcDbEntity
  8
0
  6
Continuous
 62
     7
100
AcDbCircle
 10
191.321855608167
 20
15.0573018186531
 30
0.0
 40
0.3333333333339965
100
AcDbArc
 50
180.0
 51
299.9816393688164
  0
ARC
  5
C8
102
{ACAD_REACTORS
330
DC
102
}
330
4E
100
AcDbEntity
  8
0
  6
Continuous
 62
     7
100
AcDbCircle
 10
191.321855608167
 20
19.9439783665993
 30
0.0
 40
0.3333333333332604
100
AcDbArc
 50
60.01836063118353
 51
180.0
  0
ARC
  5
C9
102
{ACAD_REACTORS
330
DC
102
}
330
4E
100
AcDbEntity
  8
0
  6
Continuous
 62
     7
100
AcDbCircle
 10
192.691308338763
 20
19.1539094835628
 30
0.0
 40
0.3333333333332746
100
AcDbArc
 50
240.0183606311793
 51
60.01835942368935
  0
ARC
  5
CA
102
{ACAD_REACTORS
330
DC
102
}
330
4E
100
AcDbEntity
  8
0
  6
Continuous
 62
     7
100
AcDbCircle
 10
192.691308338763
 20
17.5006400926262
 30
0.0
 40
0.3333333333333997
100
AcDbArc
 50
270.0
 51
90.0
  0
ARC
  5
CB
102
{ACAD_REACTORS
330
DC
102
}
330
4E
100
AcDbEntity
  8
0
  6
Continuous
 62
     7
100
AcDbCircle
 10
192.691308338763
 20
15.8473707016896
 30
0.0
 40
0.3333333333332619
100
AcDbArc
 50
299.9816393688163
 51
119.9816393688206
  0
ARC
  5
CC
102
{ACAD_REACTORS
330
DD
102
}
330
4E
100
AcDbEntity
  8
0
  6
Continuous
 62
     7
100
AcDbCircle
 10
187.253494909038
 20
20.7526980593071
 30
0.0
 40
0.2649662124751274
100
AcDbArc
 50
30.00000000000922
 51
180.0
  0
ARC
  5
CD
102
{ACAD_REACTORS
330
DD
102
}
330
4E
100
AcDbEntity
  8
0
  6
Continuous
 62
     7
100
AcDbCircle
 10
187.321862029896
 20
15.8473707016896
 30
0.0
 40
0.3333333333330017
100
AcDbArc
 50
180.0
 51
0.0
  0
ARC
  5
CE
102
{ACAD_REACTORS
330
DD
102
}
330
4E
100
AcDbEntity
  8
0
  6
Continuous
 62
     7
100
AcDbCircle
 10
188.655189950303
 20
17.8548279161004
 30
0.0
 40
0.1666666666662864
100
AcDbArc
 50
210.0000000000623
 51
329.9999999999426
  0
ARC
  5
CF
102
{ACAD_REACTORS
330
DD
102
}
330
4E
100
AcDbEntity
  8
0
  6
Continuous
 62
     7
100
AcDbCircle
 10
189.98851787071
 20
14.2880685085818
 30
0.0
 40
0.3333333333330017
100
AcDbArc
 50
180.0
 51
0.0
  0
ARC
  5
D0
102
{ACAD_REACTORS
330
DD
102
}
330
4E
100
AcDbEntity
  8
0
  6
Continuous
 62
     7
100
AcDbCircle
 10
190.056884991568
 20
20.752698059307
 30
0.0
 40
0.2649662124759971
100
AcDbArc
 50
0.0
 51
149.9999999999752
  0
ARC
  5
D1
102
{ACAD_REACTORS
330
DE
102
}
330
4E
100
AcDbEntity
  8
0
  6
Continuous
 62
     7
100
AcDbCircle
 10
185.988524292439
 20
19.9439783665993
 30
0.0
 40
0.3333333333339965
100
AcDbArc
 50
0.0
 51
180.0
  0
ARC
  5
D2
102
{ACAD_REACTORS
330
DE
102
}
330
4E
100
AcDbEntity
  8
0
  6
Continuous
 62
     7
100
AcDbCircle
 10
186.321859827834
 20
15.2706619304882
 30
0.0
 40
0.66666886872801
100
AcDbArc
 50
180.0
 51
240.0183606311481
  0
ARC
  5
D3
102
{ACAD_REACTORS
330
DE
102
}
330
4E
100
AcDbEntity
  8
0
  6
Continuous
 62
     7
100
AcDbCircle
 10
188.322919780923
 20
13.7313727224852
 30
0.0
 40
0.3333333333332604
100
AcDbArc
 50
240.0183606311836
 51
60.01836063118368
  0
ARC
  5
D4
102
{ACAD_REACTORS
330
DF
102
}
330
4E
100
AcDbEntity
  8
0
  6
Continuous
 62
     7
100
AcDbCircle
 10
184.655189950303
 20
15.8473707016896
 30
0.0
 40
0.3333333333330017
100
AcDbArc
 50
180.0
 51
0.0
  0
ARC
  5
D5
102
{ACAD_REACTORS
330
DF
102
}
330
4E
100
AcDbEntity
  8
0
  6
Continuous
 62
     7
100
AcDbCircle
 10
184.655189950303
 20
19.1539094835628
 30
0.0
 40
0.3333333333330017
100
AcDbArc
 50
0.0
 51
180.0
  0
MTEXT
  5
D7
330
4E
100
AcDbEntity
  8
Symbole_ISO_
 62
     7
100
AcDbMText
 10
39.980189950303
 20
21.2506400926262
 30
0.0
 40
3.49999994039535
 41
0.0
 71
     5
 72
     1
  1
14.12.2006
  7
CONVERTER_11
 73
     1
 44
0.75727272727273
  0
MTEXT
  5
D9
330
4E
100
AcDbEntity
  8
Symbole_ISO_
 62
     7
100
AcDbMText
 10
168.655189950303
 20
22.5006400926262
 30
0.0
 40
2.5
 41
0.0
 71
     5
 72
     1
  1
Scale
  7
CONVERTER_12
 73
     1
 44
0.75727272727273
  0
MTEXT
  5
DA
330
4E
100
AcDbEntity
  8
Symbole_ISO_
 62
     7
100
AcDbMText
 10
20.980189950303
 20
13.7506400926262
 30
0.0
 40
2.5
 41
0.0
 71
     4
 72
     1
  1
Sign.
  7
CONVERTER_12
 73
     1
 44
0.75727272727273
  0
MTEXT
  5
DB
330
4E
100
AcDbEntity
  8
Symbole_ISO_
 62
     7
100
AcDbMText
 10
20.980189950303
 20
21.2506400926262
 30
0.0
 40
2.5
 41
0.0
 71
     4
 72
     1
  1
Date
  7
CONVERTER_12
 73
     1
 44
0.75727272727273
  0
HATCH
  5
DC
330
4E
100
AcDbEntity
  8
Schraffur
  6
Continuous
 62
     7
100
AcDbHatch
 10
0.0
 20
0.0
 30
0.0
210
0.0
220
0.0
230
1.0
  2
SOLID
 70
     1
 71
     1
 91
        1
 92
        1
 93
       14
 72
     2
 10
192.691308338763
 20
19.1539094835628
 40
0.3333333333332746
 50
299.9816405763107
 51
479.9816393688208
 73
     0
 72
     1
 10
192.5247341876
 20
18.8651809548799
 11
191.6551889415
 21
19.3668416737836
 72
     1
 10
191.6551889415
 20
19.3668416737836
 11
191.6551889415
 21
17.8339734259596
 72
     1
 10
191.6551889415
 20
17.8339734259596
 11
192.691308338763
 21
17.8339734259596
 72
     2
 10
192.691308338763
 20
17.5006400926262
 40
0.3333333333333997
 50
270.0
 51
450.0
 73
     0
 72
     1
 10
192.691308338763
 20
17.1673067592928
 11
191.6551889415
 21
17.1673067592928
 72
     1
 10
191.6551889415
 20
17.1673067592928
 11
191.6551889415
 21
15.6344385114688
 72
     1
 10
191.6551889415
 20
15.6344385114688
 11
192.5247341876
 21
16.1360992303725
 72
     2
 10
192.691308338763
 20
15.8473707016896
 40
0.3333333333332619
 50
240.0183606311795
 51
420.0183606311837
 73
     0
 72
     1
 10
192.857882489926
 20
15.5586421730067
 11
191.48842975933
 21
14.7685732899702
 72
     2
 10
191.321855608167
 20
15.0573018186531
 40
0.3333333333339965
 50
60.01836063118353
 51
180.0
 73
     0
 72
     1
 10
190.988522274833
 20
15.0573018186531
 11
190.988522274833
 21
19.9439783665993
 72
     2
 10
191.321855608167
 20
19.9439783665993
 40
0.3333333333332604
 50
180.0
 51
299.9816393688164
 73
     0
 72
     1
 10
191.48842975933
 20
20.2327068952822
 11
192.857882489926
 21
19.4426380122457
 97
       14
330
9F
330
C7
330
A0
330
C8
330
A1
330
C9
330
A2
330
A3
330
A4
330
CA
330
A5
330
A6
330
A7
330
CB
 75
     0
 76
     1
 98
        1
 10
0.0
 20
0.0
  0
HATCH
  5
DD
330
4E
100
AcDbEntity
  8
Schraffur
  6
Continuous
 62
     7
100
AcDbHatch
 10
0.0
 20
0.0
 30
0.0
210
0.0
220
0.0
230
1.0
  2
SOLID
 70
     1
 71
     1
 91
        1
 92
        1
 93
       13
 72
     2
 10
187.253494909038
 20
20.7526980593071
 40
0.2649662124751274
 50
30.00000000000922
 51
180.0
 73
     1
 72
     1
 10
186.988528696562
 20
20.7526980593071
 11
186.988528696563
 21
15.8473707016896
 72
     2
 10
187.321862029896
 20
15.8473707016896
 40
0.3333333333330017
 50
180.0
 51
360.0
 73
     1
 72
     1
 10
187.655195363229
 20
15.8473707016896
 11
187.655195363229
 21
19.2535360148728
 72
     1
 10
187.655195363229
 20
19.2535360148728
 11
188.510852383006
 21
17.7714945827671
 72
     2
 10
188.655189950303
 20
17.8548279161004
 40
0.1666666666662864
 50
210.0000000000623
 51
329.9999999999426
 73
     1
 72
     1
 10
188.7995275176
 20
17.7714945827671
 11
189.655184537377
 21
19.2535360148728
 72
     1
 10
189.655184537377
 20
19.2535360148728
 11
189.655184537377
 21
14.2880685085818
 72
     2
 10
189.98851787071
 20
14.2880685085818
 40
0.3333333333330017
 50
180.0
 51
360.0
 73
     1
 72
     1
 10
190.321851204044
 20
14.2880685085818
 11
190.321851204044
 21
20.752698059307
 72
     2
 10
190.056884991568
 20
20.752698059307
 40
0.2649662124759971
 50
0.0
 51
149.9999999999752
 73
     1
 72
     1
 10
189.82741752042
 20
20.8851811655447
 11
188.655189950303
 21
18.8548234560689
 72
     1
 10
188.655189950303
 20
18.8548234560689
 11
187.482962380186
 21
20.8851811655447
 97
       13
330
AE
330
D0
330
AD
330
CF
330
AC
330
AB
330
CE
330
AA
330
A9
330
CD
330
A8
330
CC
330
AF
 75
     0
 76
     1
 98
        1
 10
0.0
 20
0.0
  0
HATCH
  5
DE
330
4E
100
AcDbEntity
  8
Schraffur
  6
Continuous
 62
     7
100
AcDbHatch
 10
0.0
 20
0.0
 30
0.0
210
0.0
220
0.0
230
1.0
  2
SOLID
 70
     1
 71
     1
 91
        1
 92
        1
 93
        7
 72
     1
 10
186.321857625773
 20
15.270660658657
 11
186.321857625773
 21
19.9439783665993
 72
     2
 10
185.988524292439
 20
19.9439783665993
 40
0.3333333333339965
 50
0.0
 51
180.0
 73
     1
 72
     1
 10
185.655190959106
 20
19.9439783665993
 11
185.655190959106
 21
15.2706619304882
 72
     2
 10
186.321859827834
 20
15.2706619304882
 40
0.66666886872801
 50
180.0
 51
240.0183606311481
 73
     1
 72
     1
 10
185.988710425088
 20
14.6932029657285
 11
188.15634562976
 21
13.4426441938023
 72
     2
 10
188.322919780923
 20
13.7313727224852
 40
0.3333333333332604
 50
240.0183606311836
 51
420.0183606311837
 73
     1
 72
     1
 10
188.489493932086
 20
14.0201012511681
 11
186.321857625773
 21
15.270660658657
 97
        7
330
D3
330
B2
330
D2
330
B1
330
D1
330
B0
330
B3
 75
     0
 76
     1
 98
        1
 10
0.0
 20
0.0
  0
HATCH
  5
DF
330
4E
100
AcDbEntity
  8
Schraffur
  6
Continuous
 62
     7
100
AcDbHatch
 10
0.0
 20
0.0
 30
0.0
210
0.0
220
0.0
230
1.0
  2
SOLID
 70
     1
 71
     1
 91
        1
 92
        1
 93
        4
 72
     1
 10
184.988523283636
 20
19.1539094835628
 11
184.988523283636
 21
15.8473707016896
 72
     2
 10
184.655189950303
 20
15.8473707016896
 40
0.3333333333330017
 50
0.0
 51
180.0
 73
     0
 72
     1
 10
184.32185661697
 20
15.8473707016896
 11
184.32185661697
 21
19.1539094835628
 72
     2
 10
184.655189950303
 20
19.1539094835628
 40
0.3333333333330017
 50
180.0
 51
360.0
 73
     0
 97
        4
330
B4
330
D4
330
B5
330
D5
 75
     0
 76
     1
 98
        1
 10
0.0
 20
0.0
  0
ENDBLK
  5
50
330
4E
100
AcDbEntity
  8
0
100
AcDbBlockEnd
  0
BLOCK
  5
52
330
51
100
AcDbEntity
  8
0
100
AcDbBlockBegin
  2
Ränder_Ilme_Rahmen_A4_quer
 70
     0
 10
0.0
 20
0.0
 30
0.0
  3
Ränder_Ilme_Rahmen_A4_quer
  1

  0
LINE
  5
E0
330
51
100
AcDbEntity
  8
Skizziergeometrie_ISO_
  6
Continuous
 62
     7
100
AcDbLine
 10
287.0
 20
190.0
 30
0.0
 11
287.0
 21
10.0
 31
0.0
  0
LINE
  5
E1
330
51
100
AcDbEntity
  8
Skizziergeometrie_ISO_
  6
Continuous
 62
     7
100
AcDbLine
 10
148.5
 20
210.0
 30
0.0
 11
148.5
 21
196.0
 31
0.0
  0
LINE
  5
E2
330
51
100
AcDbEntity
  8
Skizziergeometrie_ISO_
  6
Continuous
 62
     7
100
AcDbLine
 10
9.99999999999998
 20
9.99999999999995
 30
0.0
 11
287.0
 21
10.0
 31
0.0
  0
LINE
  5
E3
330
51
100
AcDbEntity
  8
Skizziergeometrie_ISO_
  6
Continuous
 62
     7
100
AcDbLine
 10
10.0
 20
190.0
 30
0.0
 11
287.0
 21
190.0
 31
0.0
  0
LINE
  5
E4
330
51
100
AcDbEntity
  8
Skizziergeometrie_ISO_
  6
Continuous
 62
     7
100
AcDbLine
 10
9.99999999999998
 20
9.99999999999995
 30
0.0
 11
10.0
 21
190.0
 31
0.0
  0
MTEXT
  5
E5
330
51
100
AcDbEntity
  8
Symbole_ISO_
 62
     7
100
AcDbMText
 10
148.5
 20
196.0
 30
0.0
 40
3.5
 41
0.0
 71
     2
 72
     1
  1
Diritti riservati     All rights reserved
  7
CONVERTER_12
 73
     1
 44
0.75727272727273
  0
ENDBLK
  5
53
330
51
100
AcDbEntity
  8
0
100
AcDbBlockEnd
  0
BLOCK
  5
2C0
330
2B8
100
AcDbEntity
  8
0
100
AcDbBlockBegin
  2
*D3
 70
     1
 10
0.0
 20
0.0
 30
0.0
  3
*D3
  1

  0
LINE
  5
2B9
330
2B8
100
AcDbEntity
  8
Bemaßungen_TC_020513_DIN_
  6
Continuous
 62
     7
100
AcDbLine
 10
136.0211805745368
 20
156.8524733384162
 30
0.0
 11
141.3624279181675
 21
136.3776918544989
 31
0.0
  0
LINE
  5
2BA
330
2B8
100
AcDbEntity
  8
Bemaßungen_TC_020513_DIN_
  6
Continuous
 62
     7
100
AcDbLine
 10
134.0585274700637
 20
134.472326520211
 30
0.0
 11
143.2976624629611
 21
136.8825356487929
 31
0.0
  0
LINE
  5
2BB
330
2B8
100
AcDbEntity
  8
Bemaßungen_TC_020513_DIN_
  6
Continuous
 62
     7
100
AcDbLine
 10
128.7172801264331
 20
154.9471080041283
 30
0.0
 11
137.9564151193305
 21
157.3573171327102
 31
0.0
  0
SOLID
  5
2BC
330
2B8
100
AcDbEntity
  8
Bemaßungen_TC_020513_DIN_
 62
     7
100
AcDbTrace
 10
136.9707083939537
 20
154.516510090437
 30
0.0
 11
136.333762240855
 21
154.3503502244112
 31
0.0
 12
136.0211805745368
 22
156.8524733384162
 32
0.0
 13
136.0211805745368
 23
156.8524733384162
 33
0.0
  0
SOLID
  5
2BD
330
2B8
100
AcDbEntity
  8
Bemaßungen_TC_020513_DIN_
 62
     7
100
AcDbTrace
 10
140.4129000987506
 20
138.7136551024781
 30
0.0
 11
141.0498462518493
 21
138.8798149685039
 31
0.0
 12
141.3624279181675
 22
136.3776918544989
 32
0.0
 13
141.3624279181675
 23
136.3776918544989
 33
0.0
  0
MTEXT
  5
2BF
330
2B8
100
AcDbEntity
  8
Bemaßungen_TC_020513_DIN_
 62
     7
100
AcDbMText
 10
139.7297793318345
 20
153.4181715771213
 30
0.0
 40
3.5
 41
0.0
 71
     7
 72
     1
  1
NPT 1/2"
  7
CONVERTER_14
 11
0.2524218971470044
 21
-0.9676172723968436
 31
0.0
 73
     1
 44
0.45454545454545
  0
ENDBLK
  5
2C1
330
2B8
100
AcDbEntity
  8
0
100
AcDbBlockEnd
  0
BLOCK
  5
2CB
330
2C4
100
AcDbEntity
  8
0
100
AcDbBlockBegin
  2
*D4
 70
     1
 10
0.0
 20
0.0
 30
0.0
  3
*D4
  1

  0
LINE
  5
2C5
330
2C4
100
AcDbEntity
  8
Bemaßungen_TC_020513_DIN_
  6
Continuous
 62
     7
100
AcDbLine
 10
238.1034943519981
 20
94.673388804965
 30
0.0
 11
238.1034943519981
 21
159.1733888049649
 31
0.0
  0
LINE
  5
2C6
330
2C4
100
AcDbEntity
  8
Bemaßungen_TC_020513_DIN_
  6
Continuous
 62
     7
100
AcDbLine
 10
217.1034943519981
 20
94.673388804965
 30
0.0
 11
240.1034943519981
 21
94.673388804965
 31
0.0
  0
LINE
  5
2C7
330
2C4
100
AcDbEntity
  8
Bemaßungen_TC_020513_DIN_
  6
Continuous
 62
     7
100
AcDbLine
 10
206.398494352001
 20
159.1733888049649
 30
0.0
 11
240.1034943519981
 21
159.1733888049649
 31
0.0
  0
SOLID
  5
2C8
330
2C4
100
AcDbEntity
  8
Bemaßungen_TC_020513_DIN_
 62
     7
100
AcDbTrace
 10
238.4326255959666
 20
156.6733888049649
 30
0.0
 11
237.7743631080296
 21
156.6733888049649
 31
0.0
 12
238.1034943519981
 22
159.1733888049649
 32
0.0
 13
238.1034943519981
 23
159.1733888049649
 33
0.0
  0
SOLID
  5
2C9
330
2C4
100
AcDbEntity
  8
Bemaßungen_TC_020513_DIN_
 62
     7
100
AcDbTrace
 10
237.7743631080296
 20
97.173388804965
 30
0.0
 11
238.4326255959666
 21
97.173388804965
 31
0.0
 12
238.1034943519981
 22
94.673388804965
 32
0.0
 13
238.1034943519981
 23
94.673388804965
 33
0.0
  0
MTEXT
  5
2CA
330
2C4
100
AcDbEntity
  8
Bemaßungen_TC_020513_DIN_
 62
     7
100
AcDbMText
 10
234.846809495245
 20
122.355005448894
 30
0.0
 40
3.5
 41
0.0
 71
     7
 72
     1
  1
64,5
  7
CONVERTER_14
 11
0.0
 21
1.0
 31
0.0
 73
     1
 44
0.45454545454545
  0
ENDBLK
  5
2CC
330
2C4
100
AcDbEntity
  8
0
100
AcDbBlockEnd
  0
BLOCK
  5
2D6
330
2CF
100
AcDbEntity
  8
0
100
AcDbBlockBegin
  2
*D5
 70
     1
 10
0.0
 20
0.0
 30
0.0
  3
*D5
  1

  0
LINE
  5
2D0
330
2CF
100
AcDbEntity
  8
Bemaßungen_TC_020513_DIN_
  6
Continuous
 62
     7
100
AcDbLine
 10
223.3984943519988
 20
66.09232369528907
 30
0.0
 11
187.3984943519987
 21
66.09232369528907
 31
0.0
  0
LINE
  5
2D1
330
2CF
100
AcDbEntity
  8
Bemaßungen_TC_020513_DIN_
  6
Continuous
 62
     7
100
AcDbLine
 10
223.3984943519988
 20
126.2983888049649
 30
0.0
 11
223.3984943519988
 21
64.09232369528907
 31
0.0
  0
LINE
  5
2D2
330
2CF
100
AcDbEntity
  8
Bemaßungen_TC_020513_DIN_
  6
Continuous
 62
     7
100
AcDbLine
 10
187.3984943519987
 20
126.2983888049649
 30
0.0
 11
187.3984943519987
 21
64.09232369528907
 31
0.0
  0
SOLID
  5
2D3
330
2CF
100
AcDbEntity
  8
Bemaßungen_TC_020513_DIN_
 62
     7
100
AcDbTrace
 10
189.8984943519987
 20
66.42145493925756
 30
0.0
 11
189.8984943519987
 21
65.76319245132058
 31
0.0
 12
187.3984943519987
 22
66.09232369528907
 32
0.0
 13
187.3984943519987
 23
66.09232369528907
 33
0.0
  0
SOLID
  5
2D4
330
2CF
100
AcDbEntity
  8
Bemaßungen_TC_020513_DIN_
 62
     7
100
AcDbTrace
 10
220.8984943519988
 20
65.76319245132058
 30
0.0
 11
220.8984943519988
 21
66.42145493925756
 31
0.0
 12
223.3984943519988
 22
66.09232369528907
 32
0.0
 13
223.3984943519988
 23
66.09232369528907
 33
0.0
  0
MTEXT
  5
2D5
330
2CF
100
AcDbEntity
  8
Bemaßungen_TC_020513_DIN_
 62
     7
100
AcDbMText
 10
202.894060518438
 20
68.7187220581813
 30
0.0
 40
3.5
 41
0.0
 71
     7
 72
     1
  1
36
  7
CONVERTER_14
 11
0.9999999999970619
 21
2.424068405545306E-6
 31
0.0
 73
     1
 44
0.45454545454545
  0
ENDBLK
  5
2D7
330
2CF
100
AcDbEntity
  8
0
100
AcDbBlockEnd
  0
BLOCK
  5
2E1
330
2DA
100
AcDbEntity
  8
0
100
AcDbBlockBegin
  2
*D6
 70
     1
 10
0.0
 20
0.0
 30
0.0
  3
*D6
  1

  0
LINE
  5
2DB
330
2DA
100
AcDbEntity
  8
Bemaßungen_TC_020513_DIN_
  6
Continuous
 62
     7
100
AcDbLine
 10
220.1034943519989
 20
75.51326636234243
 30
0.0
 11
190.6934943519989
 21
75.51326636234243
 31
0.0
  0
LINE
  5
2DC
330
2DA
100
AcDbEntity
  8
Bemaßungen_TC_020513_DIN_
  6
Continuous
 62
     7
100
AcDbLine
 10
220.1034943519989
 20
95.173388804965
 30
0.0
 11
220.1034943519989
 21
73.51326636234243
 31
0.0
  0
LINE
  5
2DD
330
2DA
100
AcDbEntity
  8
Bemaßungen_TC_020513_DIN_
  6
Continuous
 62
     7
100
AcDbLine
 10
190.6934943519989
 20
95.173388804965
 30
0.0
 11
190.6934943519989
 21
73.51326636234243
 31
0.0
  0
SOLID
  5
2DE
330
2DA
100
AcDbEntity
  8
Bemaßungen_TC_020513_DIN_
 62
     7
100
AcDbTrace
 10
193.1934943519989
 20
75.84239760631093
 30
0.0
 11
193.1934943519989
 21
75.18413511837394
 31
0.0
 12
190.6934943519989
 22
75.51326636234243
 32
0.0
 13
190.6934943519989
 23
75.51326636234243
 33
0.0
  0
SOLID
  5
2DF
330
2DA
100
AcDbEntity
  8
Bemaßungen_TC_020513_DIN_
 62
     7
100
AcDbTrace
 10
217.6034943519989
 20
75.18413511837394
 30
0.0
 11
217.6034943519989
 21
75.84239760631093
 31
0.0
 12
220.1034943519989
 22
75.51326636234243
 32
0.0
 13
220.1034943519989
 23
75.51326636234243
 33
0.0
  0
MTEXT
  5
2E0
330
2DA
100
AcDbEntity
  8
Bemaßungen_TC_020513_DIN_
 62
     7
100
AcDbMText
 10
200.830110995928
 20
78.7699512190955
 30
0.0
 40
3.5
 41
0.0
 71
     7
 72
     1
  1
29,4
  7
CONVERTER_14
 11
0.9999999999970619
 21
2.424068405545306E-6
 31
0.0
 73
     1
 44
0.45454545454545
  0
ENDBLK
  5
2E2
330
2DA
100
AcDbEntity
  8
0
100
AcDbBlockEnd
  0
BLOCK
  5
2EC
330
2E5
100
AcDbEntity
  8
0
100
AcDbBlockBegin
  2
*D7
 70
     1
 10
0.0
 20
0.0
 30
0.0
  3
*D7
  1

  0
LINE
  5
2E6
330
2E5
100
AcDbEntity
  8
Bemaßungen_TC_020513_DIN_
  6
Continuous
 62
     7
100
AcDbLine
 10
121.1177751470782
 20
75.51326636234246
 30
0.0
 11
58.1077751470782
 21
75.51326636234246
 31
0.0
  0
LINE
  5
2E7
330
2E5
100
AcDbEntity
  8
Bemaßungen_TC_020513_DIN_
  6
Continuous
 62
     7
100
AcDbLine
 10
121.1177751470782
 20
95.173388804965
 30
0.0
 11
121.1177751470782
 21
73.51326636234246
 31
0.0
  0
LINE
  5
2E8
330
2E5
100
AcDbEntity
  8
Bemaßungen_TC_020513_DIN_
  6
Continuous
 62
     7
100
AcDbLine
 10
58.1077751470782
 20
95.173388804965
 30
0.0
 11
58.1077751470782
 21
73.51326636234246
 31
0.0
  0
SOLID
  5
2E9
330
2E5
100
AcDbEntity
  8
Bemaßungen_TC_020513_DIN_
 62
     7
100
AcDbTrace
 10
60.6077751470782
 20
75.84239760631095
 30
0.0
 11
60.6077751470782
 21
75.18413511837397
 31
0.0
 12
58.1077751470782
 22
75.51326636234246
 32
0.0
 13
58.1077751470782
 23
75.51326636234246
 33
0.0
  0
SOLID
  5
2EA
330
2E5
100
AcDbEntity
  8
Bemaßungen_TC_020513_DIN_
 62
     7
100
AcDbTrace
 10
118.6177751470782
 20
75.18413511837397
 30
0.0
 11
118.6177751470782
 21
75.84239760631095
 31
0.0
 12
121.1177751470782
 22
75.51326636234246
 32
0.0
 13
121.1177751470782
 23
75.51326636234246
 33
0.0
  0
MTEXT
  5
2EB
330
2E5
100
AcDbEntity
  8
Bemaßungen_TC_020513_DIN_
 62
     7
100
AcDbMText
 10
87.0964040693156
 20
78.1396647252347
 30
0.0
 40
3.5
 41
0.0
 71
     7
 72
     1
  1
63
  7
CONVERTER_14
 11
0.9999999999970619
 21
2.424068405545306E-6
 31
0.0
 73
     1
 44
0.45454545454545
  0
ENDBLK
  5
2ED
330
2E5
100
AcDbEntity
  8
0
100
AcDbBlockEnd
  0
BLOCK
  5
2F7
330
2F0
100
AcDbEntity
  8
0
100
AcDbBlockBegin
  2
*D8
 70
     1
 10
0.0
 20
0.0
 30
0.0
  3
*D8
  1

  0
LINE
  5
2F1
330
2F0
100
AcDbEntity
  8
Bemaßungen_TC_020513_DIN_
  6
Continuous
 62
     7
100
AcDbLine
 10
125.6127751470782
 20
66.09232369528911
 30
0.0
 11
53.6127751470782
 21
66.09232369528911
 31
0.0
  0
LINE
  5
2F2
330
2F0
100
AcDbEntity
  8
Bemaßungen_TC_020513_DIN_
  6
Continuous
 62
     7
100
AcDbLine
 10
125.6127751470782
 20
101.1733888049649
 30
0.0
 11
125.6127751470782
 21
64.09232369528911
 31
0.0
  0
LINE
  5
2F3
330
2F0
100
AcDbEntity
  8
Bemaßungen_TC_020513_DIN_
  6
Continuous
 62
     7
100
AcDbLine
 10
53.6127751470782
 20
101.1733888049649
 30
0.0
 11
53.6127751470782
 21
64.09232369528911
 31
0.0
  0
SOLID
  5
2F4
330
2F0
100
AcDbEntity
  8
Bemaßungen_TC_020513_DIN_
 62
     7
100
AcDbTrace
 10
56.1127751470782
 20
66.4214549392576
 30
0.0
 11
56.1127751470782
 21
65.76319245132062
 31
0.0
 12
53.6127751470782
 22
66.09232369528911
 32
0.0
 13
53.6127751470782
 23
66.09232369528911
 33
0.0
  0
SOLID
  5
2F5
330
2F0
100
AcDbEntity
  8
Bemaßungen_TC_020513_DIN_
 62
     7
100
AcDbTrace
 10
123.1127751470782
 20
65.76319245132062
 30
0.0
 11
123.1127751470782
 21
66.4214549392576
 31
0.0
 12
125.6127751470782
 22
66.09232369528911
 32
0.0
 13
125.6127751470782
 23
66.09232369528911
 33
0.0
  0
MTEXT
  5
2F6
330
2F0
100
AcDbEntity
  8
Bemaßungen_TC_020513_DIN_
 62
     7
100
AcDbMText
 10
87.1381844240223
 20
68.6566483883314
 30
0.0
 40
3.5
 41
0.0
 71
     7
 72
     1
  1
72
  7
CONVERTER_14
 11
0.9999999999970619
 21
2.424068405545306E-6
 31
0.0
 73
     1
 44
0.45454545454545
  0
ENDBLK
  5
2F8
330
2F0
100
AcDbEntity
  8
0
100
AcDbBlockEnd
  0
ENDSEC
  0
SECTION
  2
ENTITIES
  0
INSERT
  5
76
330
1F
100
AcDbEntity
  8
0
100
AcDbBlockReference
  2
Schriftfelder_Ilme
 10
87.019810049697
 20
-0.00064009262625
 30
0.0
  0
INSERT
  5
77
330
1F
100
AcDbEntity
  8
0
100
AcDbBlockReference
  2
Ränder_Ilme_Rahmen_A4_quer
 10
0.0
 20
0.0
 30
0.0
  0
POINT
  5
E6
330
1F
100
AcDbEntity
  8
Bemaßungen_TC_020513_DIN_
 62
     7
100
AcDbPoint
 10
133.090910197667
 20
134.219904623064
 30
0.0
  0
POINT
  5
E7
330
1F
100
AcDbEntity
  8
Bemaßungen_TC_020513_DIN_
 62
     7
100
AcDbPoint
 10
127.749662854036
 20
154.694686106982
 30
0.0
  0
POINT
  5
E8
330
1F
100
AcDbEntity
  8
Bemaßungen_TC_020513_DIN_
 62
     7
100
AcDbPoint
 10
216.103494351998
 20
94.673388804965
 30
0.0
  0
POINT
  5
E9
330
1F
100
AcDbEntity
  8
Bemaßungen_TC_020513_DIN_
 62
     7
100
AcDbPoint
 10
205.398494352001
 20
159.173388804965
 30
0.0
  0
POINT
  5
EA
330
1F
100
AcDbEntity
  8
Bemaßungen_TC_020513_DIN_
 62
     7
100
AcDbPoint
 10
223.398494351998
 20
127.298388804965
 30
0.0
  0
POINT
  5
EB
330
1F
100
AcDbEntity
  8
Bemaßungen_TC_020513_DIN_
 62
     7
100
AcDbPoint
 10
187.398494351998
 20
127.298388804965
 30
0.0
  0
POINT
  5
EC
330
1F
100
AcDbEntity
  8
Bemaßungen_TC_020513_DIN_
 62
     7
100
AcDbPoint
 10
220.103494351999
 20
96.173388804965
 30
0.0
  0
POINT
  5
ED
330
1F
100
AcDbEntity
  8
Bemaßungen_TC_020513_DIN_
 62
     7
100
AcDbPoint
 10
190.693494351999
 20
96.173388804965
 30
0.0
  0
POINT
  5
EE
330
1F
100
AcDbEntity
  8
Bemaßungen_TC_020513_DIN_
 62
     7
100
AcDbPoint
 10
121.117775147078
 20
96.173388804965
 30
0.0
  0
POINT
  5
EF
330
1F
100
AcDbEntity
  8
Bemaßungen_TC_020513_DIN_
 62
     7
100
AcDbPoint
 10
58.1077751470782
 20
96.173388804965
 30
0.0
  0
POINT
  5
F0
330
1F
100
AcDbEntity
  8
Bemaßungen_TC_020513_DIN_
 62
     7
100
AcDbPoint
 10
125.612775147078
 20
102.173388804965
 30
0.0
  0
POINT
  5
F1
330
1F
100
AcDbEntity
  8
Bemaßungen_TC_020513_DIN_
 62
     7
100
AcDbPoint
 10
53.6127751470782
 20
102.173388804965
 30
0.0
  0
LINE
  5
152
330
1F
100
AcDbEntity
  8
Mittellinie_TC_020513_DIN_
  6
CHAIN
 62
     7
100
AcDbLine
 10
89.6127751470782
 20
88.8016988970809
 30
0.0
 11
89.6127751470782
 21
162.430340273986
 31
0.0
  0
LINE
  5
153
330
1F
100
AcDbEntity
  8
Mittellinie_TC_020513_DIN_
  6
CHAIN
 62
     7
100
AcDbLine
 10
205.398494352001
 20
161.841311142971
 30
0.0
 11
205.398494351995
 21
88.8016988970809
 31
0.0
  0
LINE
  5
154
330
1F
100
AcDbEntity
  8
Mittellinie_TC_020513_DIN_
  6
CHAIN
 62
     7
100
AcDbLine
 10
133.323138343042
 20
145.214561056464
 30
0.0
 11
114.454601531304
 21
140.292334062097
 31
0.0
  0
LINE
  5
155
330
1F
100
AcDbEntity
  8
Mittellinie_TC_020513_DIN_
  6
CHAIN
 62
     7
100
AcDbLine
 10
128.112775147078
 20
102.173388804965
 30
0.0
 11
119.512775147078
 21
102.173388804965
 31
0.0
  0
LINE
  5
156
330
1F
100
AcDbEntity
  8
Mittellinie_TC_020513_DIN_
  6
CHAIN
 62
     7
100
AcDbLine
 10
59.7127751470782
 20
102.173388804965
 30
0.0
 11
51.1127751470782
 21
102.173388804965
 31
0.0
  0
LINE
  5
157
330
1F
100
AcDbEntity
  8
Mittelpunktmarkierung_TC_020513_DIN_
  6
CHAIN
 62
     7
100
AcDbLine
 10
205.398494351997
 20
106.473388804965
 30
0.0
 11
205.398494351997
 21
97.8733888049649
 31
0.0
  0
LINE
  5
158
330
1F
100
AcDbEntity
  8
Mittelpunktmarkierung_TC_020513_DIN_
  6
CHAIN
 62
     7
100
AcDbLine
 10
209.698494351997
 20
102.173388804965
 30
0.0
 11
201.098494351997
 21
102.173388804965
 31
0.0
  0
LINE
  5
159
330
1F
100
AcDbEntity
  8
Sichtbare_Kanten_TC_020513_DIN_
  6
Continuous
 62
     7
100
AcDbLine
 10
216.103494351998
 20
94.673388804965
 30
0.0
 11
220.103494351999
 21
94.673388804965
 31
0.0
  0
LINE
  5
15A
330
1F
100
AcDbEntity
  8
Sichtbare_Kanten_TC_020513_DIN_
  6
Continuous
 62
     7
100
AcDbLine
 10
220.103494351999
 20
94.673388804965
 30
0.0
 11
220.103494351999
 21
97.6733888049649
 31
0.0
  0
LINE
  5
15B
330
1F
100
AcDbEntity
  8
Sichtbare_Kanten_TC_020513_DIN_
  6
Continuous
 62
     7
100
AcDbLine
 10
190.693494351999
 20
94.673388804965
 30
0.0
 11
194.693494351998
 21
94.673388804965
 31
0.0
  0
LINE
  5
15C
330
1F
100
AcDbEntity
  8
Sichtbare_Kanten_TC_020513_DIN_
  6
Continuous
 62
     7
100
AcDbLine
 10
190.693494351999
 20
94.673388804965
 30
0.0
 11
190.693494351999
 21
97.6733888049649
 31
0.0
  0
LINE
  5
15D
330
1F
100
AcDbEntity
  8
Sichtbare_Kanten_TC_020513_DIN_
  6
Continuous
 62
     7
100
AcDbLine
 10
216.103494351998
 20
94.673388804965
 30
0.0
 11
194.693494351998
 21
94.673388804965
 31
0.0
  0
LINE
  5
15E
330
1F
100
AcDbEntity
  8
Sichtbare_Kanten_TC_020513_DIN_
  6
Continuous
 62
     7
100
AcDbLine
 10
190.693494351999
 20
97.6733888049649
 30
0.0
 11
194.693494351998
 21
97.6733888049649
 31
0.0
  0
LINE
  5
15F
330
1F
100
AcDbEntity
  8
Sichtbare_Kanten_TC_020513_DIN_
  6
Continuous
 62
     7
100
AcDbLine
 10
216.103494351998
 20
97.6733888049649
 30
0.0
 11
220.103494351999
 21
97.6733888049649
 31
0.0
  0
LINE
  5
160
330
1F
100
AcDbEntity
  8
Sichtbare_Kanten_TC_020513_DIN_
  6
Continuous
 62
     7
100
AcDbLine
 10
216.103494351998
 20
97.6733888049649
 30
0.0
 11
194.693494351998
 21
97.6733888049649
 31
0.0
  0
LINE
  5
161
330
1F
100
AcDbEntity
  8
Sichtbare_Kanten_TC_020513_DIN_
  6
Continuous
 62
     7
100
AcDbLine
 10
219.398494351999
 20
111.123388804965
 30
0.0
 11
219.398494351999
 21
111.223388804965
 31
0.0
  0
LINE
  5
162
330
1F
100
AcDbEntity
  8
Sichtbare_Kanten_TC_020513_DIN_
  6
Continuous
 62
     7
100
AcDbLine
 10
206.398494351998
 20
111.923388804965
 30
0.0
 11
206.398494351998
 21
110.423388804965
 31
0.0
  0
LINE
  5
163
330
1F
100
AcDbEntity
  8
Sichtbare_Kanten_TC_020513_DIN_
  6
Continuous
 62
     7
100
AcDbLine
 10
216.098494351998
 20
111.123388804965
 30
0.0
 11
206.398494351998
 21
111.123388804965
 31
0.0
  0
LINE
  5
164
330
1F
100
AcDbEntity
  8
Sichtbare_Kanten_TC_020513_DIN_
  6
Continuous
 62
     7
100
AcDbLine
 10
220.098494351999
 20
110.423388804965
 30
0.0
 11
216.098494351998
 21
110.423388804965
 31
0.0
  0
LINE
  5
165
330
1F
100
AcDbEntity
  8
Sichtbare_Kanten_TC_020513_DIN_
  6
Continuous
 62
     7
100
AcDbLine
 10
216.098494351998
 20
111.123388804965
 30
0.0
 11
219.398494351999
 21
111.123388804965
 31
0.0
  0
LINE
  5
166
330
1F
100
AcDbEntity
  8
Sichtbare_Kanten_TC_020513_DIN_
  6
Continuous
 62
     7
100
AcDbLine
 10
219.398494351999
 20
111.123388804965
 30
0.0
 11
220.098494351999
 21
110.423388804965
 31
0.0
  0
LINE
  5
167
330
1F
100
AcDbEntity
  8
Sichtbare_Kanten_TC_020513_DIN_
  6
Continuous
 62
     7
100
AcDbLine
 10
206.398494351998
 20
111.223388804965
 30
0.0
 11
216.098494351998
 21
111.223388804965
 31
0.0
  0
LINE
  5
168
330
1F
100
AcDbEntity
  8
Sichtbare_Kanten_TC_020513_DIN_
  6
Continuous
 62
     7
100
AcDbLine
 10
219.398494351999
 20
111.223388804965
 30
0.0
 11
216.098494351998
 21
111.223388804965
 31
0.0
  0
LINE
  5
169
330
1F
100
AcDbEntity
  8
Sichtbare_Kanten_TC_020513_DIN_
  6
Continuous
 62
     7
100
AcDbLine
 10
220.098494351999
 20
111.923388804965
 30
0.0
 11
219.398494351999
 21
111.223388804965
 31
0.0
  0
LINE
  5
16A
330
1F
100
AcDbEntity
  8
Sichtbare_Kanten_TC_020513_DIN_
  6
Continuous
 62
     7
100
AcDbLine
 10
216.098494351998
 20
111.923388804965
 30
0.0
 11
220.098494351999
 21
111.923388804965
 31
0.0
  0
LINE
  5
16B
330
1F
100
AcDbEntity
  8
Sichtbare_Kanten_TC_020513_DIN_
  6
Continuous
 62
     7
100
AcDbLine
 10
216.098494351998
 20
111.923388804965
 30
0.0
 11
206.398494351998
 21
111.923388804965
 31
0.0
  0
LINE
  5
16C
330
1F
100
AcDbEntity
  8
Sichtbare_Kanten_TC_020513_DIN_
  6
Continuous
 62
     7
100
AcDbLine
 10
206.398494351998
 20
110.423388804965
 30
0.0
 11
216.098494351998
 21
110.423388804965
 31
0.0
  0
LINE
  5
16D
330
1F
100
AcDbEntity
  8
Sichtbare_Kanten_TC_020513_DIN_
  6
Continuous
 62
     7
100
AcDbLine
 10
219.398494351999
 20
112.723388804965
 30
0.0
 11
219.398494351999
 21
112.823388804965
 31
0.0
  0
LINE
  5
16E
330
1F
100
AcDbEntity
  8
Sichtbare_Kanten_TC_020513_DIN_
  6
Continuous
 62
     7
100
AcDbLine
 10
219.398494351999
 20
114.323388804965
 30
0.0
 11
219.398494351999
 21
114.423388804965
 31
0.0
  0
LINE
  5
16F
330
1F
100
AcDbEntity
  8
Sichtbare_Kanten_TC_020513_DIN_
  6
Continuous
 62
     7
100
AcDbLine
 10
219.398494351999
 20
115.923388804965
 30
0.0
 11
219.398494351999
 21
116.023388804965
 31
0.0
  0
LINE
  5
170
330
1F
100
AcDbEntity
  8
Sichtbare_Kanten_TC_020513_DIN_
  6
Continuous
 62
     7
100
AcDbLine
 10
216.098494351998
 20
112.723388804965
 30
0.0
 11
206.398494351998
 21
112.723388804965
 31
0.0
  0
LINE
  5
171
330
1F
100
AcDbEntity
  8
Sichtbare_Kanten_TC_020513_DIN_
  6
Continuous
 62
     7
100
AcDbLine
 10
220.098494351999
 20
112.023388804965
 30
0.0
 11
216.098494351998
 21
112.023388804965
 31
0.0
  0
LINE
  5
172
330
1F
100
AcDbEntity
  8
Sichtbare_Kanten_TC_020513_DIN_
  6
Continuous
 62
     7
100
AcDbLine
 10
216.098494351998
 20
112.723388804965
 30
0.0
 11
219.398494351999
 21
112.723388804965
 31
0.0
  0
LINE
  5
173
330
1F
100
AcDbEntity
  8
Sichtbare_Kanten_TC_020513_DIN_
  6
Continuous
 62
     7
100
AcDbLine
 10
219.398494351999
 20
112.723388804965
 30
0.0
 11
220.098494351999
 21
112.023388804965
 31
0.0
  0
LINE
  5
174
330
1F
100
AcDbEntity
  8
Sichtbare_Kanten_TC_020513_DIN_
  6
Continuous
 62
     7
100
AcDbLine
 10
206.398494351998
 20
112.823388804965
 30
0.0
 11
216.098494351998
 21
112.823388804965
 31
0.0
  0
LINE
  5
175
330
1F
100
AcDbEntity
  8
Sichtbare_Kanten_TC_020513_DIN_
  6
Continuous
 62
     7
100
AcDbLine
 10
219.398494351999
 20
112.823388804965
 30
0.0
 11
216.098494351998
 21
112.823388804965
 31
0.0
  0
LINE
  5
176
330
1F
100
AcDbEntity
  8
Sichtbare_Kanten_TC_020513_DIN_
  6
Continuous
 62
     7
100
AcDbLine
 10
220.098494351999
 20
113.523388804965
 30
0.0
 11
219.398494351999
 21
112.823388804965
 31
0.0
  0
LINE
  5
177
330
1F
100
AcDbEntity
  8
Sichtbare_Kanten_TC_020513_DIN_
  6
Continuous
 62
     7
100
AcDbLine
 10
216.098494351998
 20
113.523388804965
 30
0.0
 11
220.098494351999
 21
113.523388804965
 31
0.0
  0
LINE
  5
178
330
1F
100
AcDbEntity
  8
Sichtbare_Kanten_TC_020513_DIN_
  6
Continuous
 62
     7
100
AcDbLine
 10
216.098494351998
 20
114.323388804965
 30
0.0
 11
206.398494351998
 21
114.323388804965
 31
0.0
  0
LINE
  5
179
330
1F
100
AcDbEntity
  8
Sichtbare_Kanten_TC_020513_DIN_
  6
Continuous
 62
     7
100
AcDbLine
 10
220.098494351999
 20
113.623388804965
 30
0.0
 11
216.098494351998
 21
113.623388804965
 31
0.0
  0
LINE
  5
17A
330
1F
100
AcDbEntity
  8
Sichtbare_Kanten_TC_020513_DIN_
  6
Continuous
 62
     7
100
AcDbLine
 10
216.098494351998
 20
114.323388804965
 30
0.0
 11
219.398494351999
 21
114.323388804965
 31
0.0
  0
LINE
  5
17B
330
1F
100
AcDbEntity
  8
Sichtbare_Kanten_TC_020513_DIN_
  6
Continuous
 62
     7
100
AcDbLine
 10
219.398494351999
 20
114.323388804965
 30
0.0
 11
220.098494351999
 21
113.623388804965
 31
0.0
  0
LINE
  5
17C
330
1F
100
AcDbEntity
  8
Sichtbare_Kanten_TC_020513_DIN_
  6
Continuous
 62
     7
100
AcDbLine
 10
216.098494351998
 20
115.123388804965
 30
0.0
 11
220.098494351999
 21
115.123388804965
 31
0.0
  0
LINE
  5
17D
330
1F
100
AcDbEntity
  8
Sichtbare_Kanten_TC_020513_DIN_
  6
Continuous
 62
     7
100
AcDbLine
 10
219.398494351999
 20
114.423388804965
 30
0.0
 11
220.098494351999
 21
115.123388804965
 31
0.0
  0
LINE
  5
17E
330
1F
100
AcDbEntity
  8
Sichtbare_Kanten_TC_020513_DIN_
  6
Continuous
 62
     7
100
AcDbLine
 10
219.398494351999
 20
114.423388804965
 30
0.0
 11
216.098494351998
 21
114.423388804965
 31
0.0
  0
LINE
  5
17F
330
1F
100
AcDbEntity
  8
Sichtbare_Kanten_TC_020513_DIN_
  6
Continuous
 62
     7
100
AcDbLine
 10
206.398494351998
 20
114.423388804965
 30
0.0
 11
216.098494351998
 21
114.423388804965
 31
0.0
  0
LINE
  5
180
330
1F
100
AcDbEntity
  8
Sichtbare_Kanten_TC_020513_DIN_
  6
Continuous
 62
     7
100
AcDbLine
 10
216.098494351998
 20
115.923388804965
 30
0.0
 11
206.398494351998
 21
115.923388804965
 31
0.0
  0
LINE
  5
181
330
1F
100
AcDbEntity
  8
Sichtbare_Kanten_TC_020513_DIN_
  6
Continuous
 62
     7
100
AcDbLine
 10
220.098494351999
 20
115.223388804965
 30
0.0
 11
216.098494351998
 21
115.223388804965
 31
0.0
  0
LINE
  5
182
330
1F
100
AcDbEntity
  8
Sichtbare_Kanten_TC_020513_DIN_
  6
Continuous
 62
     7
100
AcDbLine
 10
216.098494351998
 20
115.923388804965
 30
0.0
 11
219.398494351999
 21
115.923388804965
 31
0.0
  0
LINE
  5
183
330
1F
100
AcDbEntity
  8
Sichtbare_Kanten_TC_020513_DIN_
  6
Continuous
 62
     7
100
AcDbLine
 10
219.398494351999
 20
115.923388804965
 30
0.0
 11
220.098494351999
 21
115.223388804965
 31
0.0
  0
LINE
  5
184
330
1F
100
AcDbEntity
  8
Sichtbare_Kanten_TC_020513_DIN_
  6
Continuous
 62
     7
100
AcDbLine
 10
206.398494351998
 20
116.723388804965
 30
0.0
 11
206.398494351998
 21
115.223388804965
 31
0.0
  0
LINE
  5
185
330
1F
100
AcDbEntity
  8
Sichtbare_Kanten_TC_020513_DIN_
  6
Continuous
 62
     7
100
AcDbLine
 10
206.398494351998
 20
115.223388804965
 30
0.0
 11
216.098494351998
 21
115.223388804965
 31
0.0
  0
LINE
  5
186
330
1F
100
AcDbEntity
  8
Sichtbare_Kanten_TC_020513_DIN_
  6
Continuous
 62
     7
100
AcDbLine
 10
216.098494351998
 20
115.123388804965
 30
0.0
 11
206.398494351998
 21
115.123388804965
 31
0.0
  0
LINE
  5
187
330
1F
100
AcDbEntity
  8
Sichtbare_Kanten_TC_020513_DIN_
  6
Continuous
 62
     7
100
AcDbLine
 10
206.398494351998
 20
115.123388804965
 30
0.0
 11
206.398494351998
 21
113.623388804965
 31
0.0
  0
LINE
  5
188
330
1F
100
AcDbEntity
  8
Sichtbare_Kanten_TC_020513_DIN_
  6
Continuous
 62
     7
100
AcDbLine
 10
206.398494351998
 20
113.623388804965
 30
0.0
 11
216.098494351998
 21
113.623388804965
 31
0.0
  0
LINE
  5
189
330
1F
100
AcDbEntity
  8
Sichtbare_Kanten_TC_020513_DIN_
  6
Continuous
 62
     7
100
AcDbLine
 10
216.098494351998
 20
113.523388804965
 30
0.0
 11
206.398494351998
 21
113.523388804965
 31
0.0
  0
LINE
  5
18A
330
1F
100
AcDbEntity
  8
Sichtbare_Kanten_TC_020513_DIN_
  6
Continuous
 62
     7
100
AcDbLine
 10
206.398494351998
 20
113.523388804965
 30
0.0
 11
206.398494351998
 21
112.023388804965
 31
0.0
  0
LINE
  5
18B
330
1F
100
AcDbEntity
  8
Sichtbare_Kanten_TC_020513_DIN_
  6
Continuous
 62
     7
100
AcDbLine
 10
206.398494351998
 20
112.023388804965
 30
0.0
 11
216.098494351998
 21
112.023388804965
 31
0.0
  0
LINE
  5
18C
330
1F
100
AcDbEntity
  8
Sichtbare_Kanten_TC_020513_DIN_
  6
Continuous
 62
     7
100
AcDbLine
 10
206.398494351998
 20
116.023388804965
 30
0.0
 11
216.098494351998
 21
116.023388804965
 31
0.0
  0
LINE
  5
18D
330
1F
100
AcDbEntity
  8
Sichtbare_Kanten_TC_020513_DIN_
  6
Continuous
 62
     7
100
AcDbLine
 10
216.098494351998
 20
116.723388804965
 30
0.0
 11
206.398494351998
 21
116.723388804965
 31
0.0
  0
LINE
  5
18E
330
1F
100
AcDbEntity
  8
Sichtbare_Kanten_TC_020513_DIN_
  6
Continuous
 62
     7
100
AcDbLine
 10
216.098494351998
 20
116.723388804965
 30
0.0
 11
220.098494351999
 21
116.723388804965
 31
0.0
  0
LINE
  5
18F
330
1F
100
AcDbEntity
  8
Sichtbare_Kanten_TC_020513_DIN_
  6
Continuous
 62
     7
100
AcDbLine
 10
219.398494351999
 20
116.023388804965
 30
0.0
 11
216.098494351998
 21
116.023388804965
 31
0.0
  0
LINE
  5
190
330
1F
100
AcDbEntity
  8
Sichtbare_Kanten_TC_020513_DIN_
  6
Continuous
 62
     7
100
AcDbLine
 10
220.098494351999
 20
116.723388804965
 30
0.0
 11
219.398494351999
 21
116.023388804965
 31
0.0
  0
LINE
  5
191
330
1F
100
AcDbEntity
  8
Sichtbare_Kanten_TC_020513_DIN_
  6
Continuous
 62
     7
100
AcDbLine
 10
204.398494351998
 20
110.423388804965
 30
0.0
 11
204.398494351998
 21
111.923388804965
 31
0.0
  0
LINE
  5
192
330
1F
100
AcDbEntity
  8
Sichtbare_Kanten_TC_020513_DIN_
  6
Continuous
 62
     7
100
AcDbLine
 10
191.398494351999
 20
111.123388804965
 30
0.0
 11
191.398494351999
 21
111.223388804965
 31
0.0
  0
LINE
  5
193
330
1F
100
AcDbEntity
  8
Sichtbare_Kanten_TC_020513_DIN_
  6
Continuous
 62
     7
100
AcDbLine
 10
194.698494351998
 20
110.423388804965
 30
0.0
 11
190.698494351999
 21
110.423388804965
 31
0.0
  0
LINE
  5
194
330
1F
100
AcDbEntity
  8
Sichtbare_Kanten_TC_020513_DIN_
  6
Continuous
 62
     7
100
AcDbLine
 10
191.398494351999
 20
111.123388804965
 30
0.0
 11
190.698494351999
 21
110.423388804965
 31
0.0
  0
LINE
  5
195
330
1F
100
AcDbEntity
  8
Sichtbare_Kanten_TC_020513_DIN_
  6
Continuous
 62
     7
100
AcDbLine
 10
194.698494351998
 20
111.123388804965
 30
0.0
 11
191.398494351999
 21
111.123388804965
 31
0.0
  0
LINE
  5
196
330
1F
100
AcDbEntity
  8
Sichtbare_Kanten_TC_020513_DIN_
  6
Continuous
 62
     7
100
AcDbLine
 10
194.698494351998
 20
111.123388804965
 30
0.0
 11
204.398494351998
 21
111.123388804965
 31
0.0
  0
LINE
  5
197
330
1F
100
AcDbEntity
  8
Sichtbare_Kanten_TC_020513_DIN_
  6
Continuous
 62
     7
100
AcDbLine
 10
194.698494351998
 20
110.423388804965
 30
0.0
 11
204.398494351998
 21
110.423388804965
 31
0.0
  0
LINE
  5
198
330
1F
100
AcDbEntity
  8
Sichtbare_Kanten_TC_020513_DIN_
  6
Continuous
 62
     7
100
AcDbLine
 10
204.398494351998
 20
111.923388804965
 30
0.0
 11
194.698494351998
 21
111.923388804965
 31
0.0
  0
LINE
  5
199
330
1F
100
AcDbEntity
  8
Sichtbare_Kanten_TC_020513_DIN_
  6
Continuous
 62
     7
100
AcDbLine
 10
204.398494351998
 20
111.223388804965
 30
0.0
 11
194.698494351998
 21
111.223388804965
 31
0.0
  0
LINE
  5
19A
330
1F
100
AcDbEntity
  8
Sichtbare_Kanten_TC_020513_DIN_
  6
Continuous
 62
     7
100
AcDbLine
 10
191.398494351999
 20
111.223388804965
 30
0.0
 11
194.698494351998
 21
111.223388804965
 31
0.0
  0
LINE
  5
19B
330
1F
100
AcDbEntity
  8
Sichtbare_Kanten_TC_020513_DIN_
  6
Continuous
 62
     7
100
AcDbLine
 10
190.698494351999
 20
111.923388804965
 30
0.0
 11
191.398494351999
 21
111.223388804965
 31
0.0
  0
LINE
  5
19C
330
1F
100
AcDbEntity
  8
Sichtbare_Kanten_TC_020513_DIN_
  6
Continuous
 62
     7
100
AcDbLine
 10
190.698494351999
 20
111.923388804965
 30
0.0
 11
194.698494351998
 21
111.923388804965
 31
0.0
  0
LINE
  5
19D
330
1F
100
AcDbEntity
  8
Sichtbare_Kanten_TC_020513_DIN_
  6
Continuous
 62
     7
100
AcDbLine
 10
204.398494351998
 20
112.023388804965
 30
0.0
 11
204.398494351998
 21
113.523388804965
 31
0.0
  0
LINE
  5
19E
330
1F
100
AcDbEntity
  8
Sichtbare_Kanten_TC_020513_DIN_
  6
Continuous
 62
     7
100
AcDbLine
 10
191.398494351999
 20
112.723388804965
 30
0.0
 11
191.398494351999
 21
112.823388804965
 31
0.0
  0
LINE
  5
19F
330
1F
100
AcDbEntity
  8
Sichtbare_Kanten_TC_020513_DIN_
  6
Continuous
 62
     7
100
AcDbLine
 10
204.398494351998
 20
113.623388804965
 30
0.0
 11
204.398494351998
 21
115.123388804965
 31
0.0
  0
LINE
  5
1A0
330
1F
100
AcDbEntity
  8
Sichtbare_Kanten_TC_020513_DIN_
  6
Continuous
 62
     7
100
AcDbLine
 10
191.398494351999
 20
114.323388804965
 30
0.0
 11
191.398494351999
 21
114.423388804965
 31
0.0
  0
LINE
  5
1A1
330
1F
100
AcDbEntity
  8
Sichtbare_Kanten_TC_020513_DIN_
  6
Continuous
 62
     7
100
AcDbLine
 10
204.398494351998
 20
115.223388804965
 30
0.0
 11
204.398494351998
 21
116.723388804965
 31
0.0
  0
LINE
  5
1A2
330
1F
100
AcDbEntity
  8
Sichtbare_Kanten_TC_020513_DIN_
  6
Continuous
 62
     7
100
AcDbLine
 10
191.398494351999
 20
115.923388804965
 30
0.0
 11
191.398494351999
 21
116.023388804965
 31
0.0
  0
LINE
  5
1A3
330
1F
100
AcDbEntity
  8
Sichtbare_Kanten_TC_020513_DIN_
  6
Continuous
 62
     7
100
AcDbLine
 10
194.698494351998
 20
112.023388804965
 30
0.0
 11
190.698494351999
 21
112.023388804965
 31
0.0
  0
LINE
  5
1A4
330
1F
100
AcDbEntity
  8
Sichtbare_Kanten_TC_020513_DIN_
  6
Continuous
 62
     7
100
AcDbLine
 10
191.398494351999
 20
112.723388804965
 30
0.0
 11
190.698494351999
 21
112.023388804965
 31
0.0
  0
LINE
  5
1A5
330
1F
100
AcDbEntity
  8
Sichtbare_Kanten_TC_020513_DIN_
  6
Continuous
 62
     7
100
AcDbLine
 10
194.698494351998
 20
112.723388804965
 30
0.0
 11
191.398494351999
 21
112.723388804965
 31
0.0
  0
LINE
  5
1A6
330
1F
100
AcDbEntity
  8
Sichtbare_Kanten_TC_020513_DIN_
  6
Continuous
 62
     7
100
AcDbLine
 10
194.698494351998
 20
112.723388804965
 30
0.0
 11
204.398494351998
 21
112.723388804965
 31
0.0
  0
LINE
  5
1A7
330
1F
100
AcDbEntity
  8
Sichtbare_Kanten_TC_020513_DIN_
  6
Continuous
 62
     7
100
AcDbLine
 10
194.698494351998
 20
112.023388804965
 30
0.0
 11
204.398494351998
 21
112.023388804965
 31
0.0
  0
LINE
  5
1A8
330
1F
100
AcDbEntity
  8
Sichtbare_Kanten_TC_020513_DIN_
  6
Continuous
 62
     7
100
AcDbLine
 10
204.398494351998
 20
113.523388804965
 30
0.0
 11
194.698494351998
 21
113.523388804965
 31
0.0
  0
LINE
  5
1A9
330
1F
100
AcDbEntity
  8
Sichtbare_Kanten_TC_020513_DIN_
  6
Continuous
 62
     7
100
AcDbLine
 10
204.398494351998
 20
112.823388804965
 30
0.0
 11
194.698494351998
 21
112.823388804965
 31
0.0
  0
LINE
  5
1AA
330
1F
100
AcDbEntity
  8
Sichtbare_Kanten_TC_020513_DIN_
  6
Continuous
 62
     7
100
AcDbLine
 10
190.698494351999
 20
113.523388804965
 30
0.0
 11
194.698494351998
 21
113.523388804965
 31
0.0
  0
LINE
  5
1AB
330
1F
100
AcDbEntity
  8
Sichtbare_Kanten_TC_020513_DIN_
  6
Continuous
 62
     7
100
AcDbLine
 10
191.398494351999
 20
112.823388804965
 30
0.0
 11
194.698494351998
 21
112.823388804965
 31
0.0
  0
LINE
  5
1AC
330
1F
100
AcDbEntity
  8
Sichtbare_Kanten_TC_020513_DIN_
  6
Continuous
 62
     7
100
AcDbLine
 10
190.698494351999
 20
113.523388804965
 30
0.0
 11
191.398494351999
 21
112.823388804965
 31
0.0
  0
LINE
  5
1AD
330
1F
100
AcDbEntity
  8
Sichtbare_Kanten_TC_020513_DIN_
  6
Continuous
 62
     7
100
AcDbLine
 10
194.698494351998
 20
113.623388804965
 30
0.0
 11
190.698494351999
 21
113.623388804965
 31
0.0
  0
LINE
  5
1AE
330
1F
100
AcDbEntity
  8
Sichtbare_Kanten_TC_020513_DIN_
  6
Continuous
 62
     7
100
AcDbLine
 10
191.398494351999
 20
114.323388804965
 30
0.0
 11
190.698494351999
 21
113.623388804965
 31
0.0
  0
LINE
  5
1AF
330
1F
100
AcDbEntity
  8
Sichtbare_Kanten_TC_020513_DIN_
  6
Continuous
 62
     7
100
AcDbLine
 10
194.698494351998
 20
114.323388804965
 30
0.0
 11
191.398494351999
 21
114.323388804965
 31
0.0
  0
LINE
  5
1B0
330
1F
100
AcDbEntity
  8
Sichtbare_Kanten_TC_020513_DIN_
  6
Continuous
 62
     7
100
AcDbLine
 10
194.698494351998
 20
114.323388804965
 30
0.0
 11
204.398494351998
 21
114.323388804965
 31
0.0
  0
LINE
  5
1B1
330
1F
100
AcDbEntity
  8
Sichtbare_Kanten_TC_020513_DIN_
  6
Continuous
 62
     7
100
AcDbLine
 10
194.698494351998
 20
113.623388804965
 30
0.0
 11
204.398494351998
 21
113.623388804965
 31
0.0
  0
LINE
  5
1B2
330
1F
100
AcDbEntity
  8
Sichtbare_Kanten_TC_020513_DIN_
  6
Continuous
 62
     7
100
AcDbLine
 10
204.398494351998
 20
115.123388804965
 30
0.0
 11
194.698494351998
 21
115.123388804965
 31
0.0
  0
LINE
  5
1B3
330
1F
100
AcDbEntity
  8
Sichtbare_Kanten_TC_020513_DIN_
  6
Continuous
 62
     7
100
AcDbLine
 10
204.398494351998
 20
114.423388804965
 30
0.0
 11
194.698494351998
 21
114.423388804965
 31
0.0
  0
LINE
  5
1B4
330
1F
100
AcDbEntity
  8
Sichtbare_Kanten_TC_020513_DIN_
  6
Continuous
 62
     7
100
AcDbLine
 10
190.698494351999
 20
115.123388804965
 30
0.0
 11
194.698494351998
 21
115.123388804965
 31
0.0
  0
LINE
  5
1B5
330
1F
100
AcDbEntity
  8
Sichtbare_Kanten_TC_020513_DIN_
  6
Continuous
 62
     7
100
AcDbLine
 10
191.398494351999
 20
114.423388804965
 30
0.0
 11
194.698494351998
 21
114.423388804965
 31
0.0
  0
LINE
  5
1B6
330
1F
100
AcDbEntity
  8
Sichtbare_Kanten_TC_020513_DIN_
  6
Continuous
 62
     7
100
AcDbLine
 10
191.398494351999
 20
114.423388804965
 30
0.0
 11
190.698494351999
 21
115.123388804965
 31
0.0
  0
LINE
  5
1B7
330
1F
100
AcDbEntity
  8
Sichtbare_Kanten_TC_020513_DIN_
  6
Continuous
 62
     7
100
AcDbLine
 10
194.698494351998
 20
115.223388804965
 30
0.0
 11
190.698494351999
 21
115.223388804965
 31
0.0
  0
LINE
  5
1B8
330
1F
100
AcDbEntity
  8
Sichtbare_Kanten_TC_020513_DIN_
  6
Continuous
 62
     7
100
AcDbLine
 10
191.398494351999
 20
115.923388804965
 30
0.0
 11
190.698494351999
 21
115.223388804965
 31
0.0
  0
LINE
  5
1B9
330
1F
100
AcDbEntity
  8
Sichtbare_Kanten_TC_020513_DIN_
  6
Continuous
 62
     7
100
AcDbLine
 10
194.698494351998
 20
115.923388804965
 30
0.0
 11
191.398494351999
 21
115.923388804965
 31
0.0
  0
LINE
  5
1BA
330
1F
100
AcDbEntity
  8
Sichtbare_Kanten_TC_020513_DIN_
  6
Continuous
 62
     7
100
AcDbLine
 10
194.698494351998
 20
115.923388804965
 30
0.0
 11
204.398494351998
 21
115.923388804965
 31
0.0
  0
LINE
  5
1BB
330
1F
100
AcDbEntity
  8
Sichtbare_Kanten_TC_020513_DIN_
  6
Continuous
 62
     7
100
AcDbLine
 10
194.698494351998
 20
115.223388804965
 30
0.0
 11
204.398494351998
 21
115.223388804965
 31
0.0
  0
LINE
  5
1BC
330
1F
100
AcDbEntity
  8
Sichtbare_Kanten_TC_020513_DIN_
  6
Continuous
 62
     7
100
AcDbLine
 10
204.398494351998
 20
116.723388804965
 30
0.0
 11
194.698494351998
 21
116.723388804965
 31
0.0
  0
LINE
  5
1BD
330
1F
100
AcDbEntity
  8
Sichtbare_Kanten_TC_020513_DIN_
  6
Continuous
 62
     7
100
AcDbLine
 10
204.398494351998
 20
116.023388804965
 30
0.0
 11
194.698494351998
 21
116.023388804965
 31
0.0
  0
LINE
  5
1BE
330
1F
100
AcDbEntity
  8
Sichtbare_Kanten_TC_020513_DIN_
  6
Continuous
 62
     7
100
AcDbLine
 10
190.698494351999
 20
116.723388804965
 30
0.0
 11
194.698494351998
 21
116.723388804965
 31
0.0
  0
LINE
  5
1BF
330
1F
100
AcDbEntity
  8
Sichtbare_Kanten_TC_020513_DIN_
  6
Continuous
 62
     7
100
AcDbLine
 10
191.398494351999
 20
116.023388804965
 30
0.0
 11
194.698494351998
 21
116.023388804965
 31
0.0
  0
LINE
  5
1C0
330
1F
100
AcDbEntity
  8
Sichtbare_Kanten_TC_020513_DIN_
  6
Continuous
 62
     7
100
AcDbLine
 10
191.398494351999
 20
116.023388804965
 30
0.0
 11
190.698494351999
 21
116.723388804965
 31
0.0
  0
LINE
  5
1C1
330
1F
100
AcDbEntity
  8
Sichtbare_Kanten_TC_020513_DIN_
  6
Continuous
 62
     7
100
AcDbLine
 10
220.098494351999
 20
115.123388804965
 30
0.0
 11
220.098494351999
 21
115.223388804965
 31
0.0
  0
LINE
  5
1C2
330
1F
100
AcDbEntity
  8
Sichtbare_Kanten_TC_020513_DIN_
  6
Continuous
 62
     7
100
AcDbLine
 10
220.098494351999
 20
111.923388804965
 30
0.0
 11
220.098494351999
 21
112.023388804965
 31
0.0
  0
LINE
  5
1C3
330
1F
100
AcDbEntity
  8
Sichtbare_Kanten_TC_020513_DIN_
  6
Continuous
 62
     7
100
AcDbLine
 10
220.098494351999
 20
113.523388804965
 30
0.0
 11
220.098494351999
 21
113.623388804965
 31
0.0
  0
LINE
  5
1C4
330
1F
100
AcDbEntity
  8
Sichtbare_Kanten_TC_020513_DIN_
  6
Continuous
 62
     7
100
AcDbLine
 10
220.098494351999
 20
116.723388804965
 30
0.0
 11
220.098494351999
 21
124.673388804965
 31
0.0
  0
LINE
  5
1C5
330
1F
100
AcDbEntity
  8
Sichtbare_Kanten_TC_020513_DIN_
  6
Continuous
 62
     7
100
AcDbLine
 10
190.698494351999
 20
97.6733888049649
 30
0.0
 11
190.698494351999
 21
110.423388804965
 31
0.0
  0
LINE
  5
1C6
330
1F
100
AcDbEntity
  8
Sichtbare_Kanten_TC_020513_DIN_
  6
Continuous
 62
     7
100
AcDbLine
 10
190.698494351999
 20
115.123388804965
 30
0.0
 11
190.698494351999
 21
115.223388804965
 31
0.0
  0
LINE
  5
1C7
330
1F
100
AcDbEntity
  8
Sichtbare_Kanten_TC_020513_DIN_
  6
Continuous
 62
     7
100
AcDbLine
 10
190.698494351999
 20
116.723388804965
 30
0.0
 11
190.698494351999
 21
124.673388804965
 31
0.0
  0
LINE
  5
1C8
330
1F
100
AcDbEntity
  8
Sichtbare_Kanten_TC_020513_DIN_
  6
Continuous
 62
     7
100
AcDbLine
 10
190.698494351999
 20
111.923388804965
 30
0.0
 11
190.698494351999
 21
112.023388804965
 31
0.0
  0
LINE
  5
1C9
330
1F
100
AcDbEntity
  8
Sichtbare_Kanten_TC_020513_DIN_
  6
Continuous
 62
     7
100
AcDbLine
 10
190.698494351999
 20
113.523388804965
 30
0.0
 11
190.698494351999
 21
113.623388804965
 31
0.0
  0
LINE
  5
1CA
330
1F
100
AcDbEntity
  8
Sichtbare_Kanten_TC_020513_DIN_
  6
Continuous
 62
     7
100
AcDbLine
 10
220.098494351999
 20
97.6733888049649
 30
0.0
 11
220.098494351999
 21
110.423388804965
 31
0.0
  0
LINE
  5
1CB
330
1F
100
AcDbEntity
  8
Sichtbare_Kanten_TC_020513_DIN_
  6
Continuous
 62
     7
100
AcDbLine
 10
219.044573521261
 20
124.673388804965
 30
0.0
 11
222.398494351998
 21
124.673388804965
 31
0.0
  0
LINE
  5
1CC
330
1F
100
AcDbEntity
  8
Sichtbare_Kanten_TC_020513_DIN_
  6
Continuous
 62
     7
100
AcDbLine
 10
188.398494351998
 20
124.673388804965
 30
0.0
 11
191.752415182735
 21
124.673388804965
 31
0.0
  0
LINE
  5
1CD
330
1F
100
AcDbEntity
  8
Sichtbare_Kanten_TC_020513_DIN_
  6
Continuous
 62
     7
100
AcDbLine
 10
223.382436216602
 20
128.939446940361
 30
0.0
 11
223.398494351999
 21
128.923388804965
 31
0.0
  0
LINE
  5
1CE
330
1F
100
AcDbEntity
  8
Sichtbare_Kanten_TC_020513_DIN_
  6
Continuous
 62
     7
100
AcDbLine
 10
223.398494351998
 20
125.673388804965
 30
0.0
 11
223.398494351999
 21
128.923388804965
 31
0.0
  0
LINE
  5
1CF
330
1F
100
AcDbEntity
  8
Sichtbare_Kanten_TC_020513_DIN_
  6
Continuous
 62
     7
100
AcDbLine
 10
223.398494352001
 20
154.946098437828
 30
0.0
 11
223.398494352001
 21
154.923388804965
 31
0.0
  0
LINE
  5
1D0
330
1F
100
AcDbEntity
  8
Sichtbare_Kanten_TC_020513_DIN_
  6
Continuous
 62
     7
100
AcDbLine
 10
222.398494352001
 20
153.923388804965
 30
0.0
 11
223.398494352001
 21
154.923388804965
 31
0.0
  0
LINE
  5
1D1
330
1F
100
AcDbEntity
  8
Sichtbare_Kanten_TC_020513_DIN_
  6
Continuous
 62
     7
100
AcDbLine
 10
223.398494352001
 20
154.946098437828
 30
0.0
 11
223.398494352001
 21
158.173388804965
 31
0.0
  0
LINE
  5
1D2
330
1F
100
AcDbEntity
  8
Sichtbare_Kanten_TC_020513_DIN_
  6
Continuous
 62
     7
100
AcDbLine
 10
187.398494352001
 20
158.173388804965
 30
0.0
 11
187.398494352001
 21
154.946098437828
 31
0.0
  0
LINE
  5
1D3
330
1F
100
AcDbEntity
  8
Sichtbare_Kanten_TC_020513_DIN_
  6
Continuous
 62
     7
100
AcDbLine
 10
222.398494352001
 20
159.173388804965
 30
0.0
 11
188.398494352001
 21
159.173388804965
 31
0.0
  0
LINE
  5
1D4
330
1F
100
AcDbEntity
  8
Sichtbare_Kanten_TC_020513_DIN_
  6
Continuous
 62
     7
100
AcDbLine
 10
187.398494352001
 20
154.923388804965
 30
0.0
 11
187.398494352001
 21
154.946098437828
 31
0.0
  0
LINE
  5
1D5
330
1F
100
AcDbEntity
  8
Sichtbare_Kanten_TC_020513_DIN_
  6
Continuous
 62
     7
100
AcDbLine
 10
187.398494352001
 20
154.923388804965
 30
0.0
 11
188.398494352001
 21
153.923388804965
 31
0.0
  0
LINE
  5
1D6
330
1F
100
AcDbEntity
  8
Sichtbare_Kanten_TC_020513_DIN_
  6
Continuous
 62
     7
100
AcDbLine
 10
188.398494352001
 20
153.946098437828
 30
0.0
 11
188.398494351998
 21
129.923388804965
 31
0.0
  0
LINE
  5
1D7
330
1F
100
AcDbEntity
  8
Sichtbare_Kanten_TC_020513_DIN_
  6
Continuous
 62
     7
100
AcDbLine
 10
222.398494351999
 20
129.923388804965
 30
0.0
 11
222.398494352001
 21
153.946098437828
 31
0.0
  0
LINE
  5
1D8
330
1F
100
AcDbEntity
  8
Sichtbare_Kanten_TC_020513_DIN_
  6
Continuous
 62
     7
100
AcDbLine
 10
188.414552487395
 20
129.939446940361
 30
0.0
 11
187.414552487395
 21
128.939446940361
 31
0.0
  0
LINE
  5
1D9
330
1F
100
AcDbEntity
  8
Sichtbare_Kanten_TC_020513_DIN_
  6
Continuous
 62
     7
100
AcDbLine
 10
223.382436216602
 20
128.939446940361
 30
0.0
 11
222.382436216603
 21
129.939446940361
 31
0.0
  0
LINE
  5
1DA
330
1F
100
AcDbEntity
  8
Sichtbare_Kanten_TC_020513_DIN_
  6
Continuous
 62
     7
100
AcDbLine
 10
187.398494351998
 20
128.923388804965
 30
0.0
 11
187.414552487395
 21
128.939446940361
 31
0.0
  0
LINE
  5
1DB
330
1F
100
AcDbEntity
  8
Sichtbare_Kanten_TC_020513_DIN_
  6
Continuous
 62
     7
100
AcDbLine
 10
187.398494351998
 20
128.923388804965
 30
0.0
 11
187.398494351998
 21
125.673388804965
 31
0.0
  0
LINE
  5
1DC
330
1F
100
AcDbEntity
  8
Sichtbare_Kanten_TC_020513_DIN_
  6
Continuous
 62
     7
100
AcDbLine
 10
58.1077751470782
 20
94.673388804965
 30
0.0
 11
62.1077751470782
 21
94.673388804965
 31
0.0
  0
LINE
  5
1DD
330
1F
100
AcDbEntity
  8
Sichtbare_Kanten_TC_020513_DIN_
  6
Continuous
 62
     7
100
AcDbLine
 10
117.117775147078
 20
94.673388804965
 30
0.0
 11
62.1077751470782
 21
94.673388804965
 31
0.0
  0
LINE
  5
1DE
330
1F
100
AcDbEntity
  8
Sichtbare_Kanten_TC_020513_DIN_
  6
Continuous
 62
     7
100
AcDbLine
 10
117.117775147078
 20
94.673388804965
 30
0.0
 11
121.117775147078
 21
94.673388804965
 31
0.0
  0
LINE
  5
1DF
330
1F
100
AcDbEntity
  8
Sichtbare_Kanten_TC_020513_DIN_
  6
Continuous
 62
     7
100
AcDbLine
 10
121.117775147078
 20
94.673388804965
 30
0.0
 11
121.117775147078
 21
97.6733888049649
 31
0.0
  0
LINE
  5
1E0
330
1F
100
AcDbEntity
  8
Sichtbare_Kanten_TC_020513_DIN_
  6
Continuous
 62
     7
100
AcDbLine
 10
58.1077751470782
 20
94.673388804965
 30
0.0
 11
58.1077751470782
 21
97.6733888049649
 31
0.0
  0
LINE
  5
1E1
330
1F
100
AcDbEntity
  8
Sichtbare_Kanten_TC_020513_DIN_
  6
Continuous
 62
     7
100
AcDbLine
 10
117.117775147078
 20
97.6733888049649
 30
0.0
 11
121.117775147078
 21
97.6733888049649
 31
0.0
  0
LINE
  5
1E2
330
1F
100
AcDbEntity
  8
Sichtbare_Kanten_TC_020513_DIN_
  6
Continuous
 62
     7
100
AcDbLine
 10
117.117775147078
 20
97.6733888049649
 30
0.0
 11
62.1077751470782
 21
97.6733888049649
 31
0.0
  0
LINE
  5
1E3
330
1F
100
AcDbEntity
  8
Sichtbare_Kanten_TC_020513_DIN_
  6
Continuous
 62
     7
100
AcDbLine
 10
58.1077751470782
 20
97.6733888049649
 30
0.0
 11
62.1077751470782
 21
97.6733888049649
 31
0.0
  0
LINE
  5
1E4
330
1F
100
AcDbEntity
  8
Sichtbare_Kanten_TC_020513_DIN_
  6
Continuous
 62
     7
100
AcDbLine
 10
62.1127751470782
 20
110.423388804965
 30
0.0
 11
58.1127751470782
 21
110.423388804965
 31
0.0
  0
LINE
  5
1E5
330
1F
100
AcDbEntity
  8
Sichtbare_Kanten_TC_020513_DIN_
  6
Continuous
 62
     7
100
AcDbLine
 10
58.8127751470782
 20
111.123388804965
 30
0.0
 11
58.1127751470782
 21
110.423388804965
 31
0.0
  0
LINE
  5
1E6
330
1F
100
AcDbEntity
  8
Sichtbare_Kanten_TC_020513_DIN_
  6
Continuous
 62
     7
100
AcDbLine
 10
58.8127751470782
 20
111.123388804965
 30
0.0
 11
62.1127751470782
 21
111.123388804965
 31
0.0
  0
LINE
  5
1E7
330
1F
100
AcDbEntity
  8
Sichtbare_Kanten_TC_020513_DIN_
  6
Continuous
 62
     7
100
AcDbLine
 10
117.112775147078
 20
111.123388804965
 30
0.0
 11
62.1127751470782
 21
111.123388804965
 31
0.0
  0
LINE
  5
1E8
330
1F
100
AcDbEntity
  8
Sichtbare_Kanten_TC_020513_DIN_
  6
Continuous
 62
     7
100
AcDbLine
 10
121.112775147078
 20
110.423388804965
 30
0.0
 11
117.112775147078
 21
110.423388804965
 31
0.0
  0
LINE
  5
1E9
330
1F
100
AcDbEntity
  8
Sichtbare_Kanten_TC_020513_DIN_
  6
Continuous
 62
     7
100
AcDbLine
 10
117.112775147078
 20
111.123388804965
 30
0.0
 11
120.412775147078
 21
111.123388804965
 31
0.0
  0
LINE
  5
1EA
330
1F
100
AcDbEntity
  8
Sichtbare_Kanten_TC_020513_DIN_
  6
Continuous
 62
     7
100
AcDbLine
 10
121.112775147078
 20
110.423388804965
 30
0.0
 11
120.412775147078
 21
111.123388804965
 31
0.0
  0
LINE
  5
1EB
330
1F
100
AcDbEntity
  8
Sichtbare_Kanten_TC_020513_DIN_
  6
Continuous
 62
     7
100
AcDbLine
 10
62.1127751470782
 20
111.223388804965
 30
0.0
 11
58.8127751470782
 21
111.223388804965
 31
0.0
  0
LINE
  5
1EC
330
1F
100
AcDbEntity
  8
Sichtbare_Kanten_TC_020513_DIN_
  6
Continuous
 62
     7
100
AcDbLine
 10
58.1127751470782
 20
111.923388804965
 30
0.0
 11
58.8127751470782
 21
111.223388804965
 31
0.0
  0
LINE
  5
1ED
330
1F
100
AcDbEntity
  8
Sichtbare_Kanten_TC_020513_DIN_
  6
Continuous
 62
     7
100
AcDbLine
 10
62.1127751470782
 20
111.223388804965
 30
0.0
 11
117.112775147078
 21
111.223388804965
 31
0.0
  0
LINE
  5
1EE
330
1F
100
AcDbEntity
  8
Sichtbare_Kanten_TC_020513_DIN_
  6
Continuous
 62
     7
100
AcDbLine
 10
120.412775147078
 20
111.223388804965
 30
0.0
 11
117.112775147078
 21
111.223388804965
 31
0.0
  0
LINE
  5
1EF
330
1F
100
AcDbEntity
  8
Sichtbare_Kanten_TC_020513_DIN_
  6
Continuous
 62
     7
100
AcDbLine
 10
121.112775147078
 20
111.923388804965
 30
0.0
 11
120.412775147078
 21
111.223388804965
 31
0.0
  0
LINE
  5
1F0
330
1F
100
AcDbEntity
  8
Sichtbare_Kanten_TC_020513_DIN_
  6
Continuous
 62
     7
100
AcDbLine
 10
58.1127751470782
 20
111.923388804965
 30
0.0
 11
62.1127751470782
 21
111.923388804965
 31
0.0
  0
LINE
  5
1F1
330
1F
100
AcDbEntity
  8
Sichtbare_Kanten_TC_020513_DIN_
  6
Continuous
 62
     7
100
AcDbLine
 10
117.112775147078
 20
111.923388804965
 30
0.0
 11
62.1127751470782
 21
111.923388804965
 31
0.0
  0
LINE
  5
1F2
330
1F
100
AcDbEntity
  8
Sichtbare_Kanten_TC_020513_DIN_
  6
Continuous
 62
     7
100
AcDbLine
 10
117.112775147078
 20
111.923388804965
 30
0.0
 11
121.112775147078
 21
111.923388804965
 31
0.0
  0
LINE
  5
1F3
330
1F
100
AcDbEntity
  8
Sichtbare_Kanten_TC_020513_DIN_
  6
Continuous
 62
     7
100
AcDbLine
 10
62.1127751470782
 20
110.423388804965
 30
0.0
 11
117.112775147078
 21
110.423388804965
 31
0.0
  0
LINE
  5
1F4
330
1F
100
AcDbEntity
  8
Sichtbare_Kanten_TC_020513_DIN_
  6
Continuous
 62
     7
100
AcDbLine
 10
88.3627751470782
 20
101.183388804965
 30
0.0
 11
88.3627751470782
 21
104.306388860496
 31
0.0
  0
LINE
  5
1F5
330
1F
100
AcDbEntity
  8
Sichtbare_Kanten_TC_020513_DIN_
  6
Continuous
 62
     7
100
AcDbLine
 10
88.8131058421251
 20
104.455946918193
 30
0.0
 11
89.6127751470782
 21
103.384802306287
 31
0.0
  0
LINE
  5
1F6
330
1F
100
AcDbEntity
  8
Sichtbare_Kanten_TC_020513_DIN_
  6
Continuous
 62
     7
100
AcDbLine
 10
89.6127751470782
 20
103.384802306287
 30
0.0
 11
90.4124444520313
 21
104.455946918193
 31
0.0
  0
LINE
  5
1F7
330
1F
100
AcDbEntity
  8
Sichtbare_Kanten_TC_020513_DIN_
  6
Continuous
 62
     7
100
AcDbLine
 10
90.8627751470782
 20
104.306388860496
 30
0.0
 11
90.8627751470782
 21
100.040388749434
 31
0.0
  0
LINE
  5
1F8
330
1F
100
AcDbEntity
  8
Sichtbare_Kanten_TC_020513_DIN_
  6
Continuous
 62
     7
100
AcDbLine
 10
90.3627751470782
 20
100.040388749434
 30
0.0
 11
90.3627751470782
 21
103.55361983223
 31
0.0
  0
LINE
  5
1F9
330
1F
100
AcDbEntity
  8
Sichtbare_Kanten_TC_020513_DIN_
  6
Continuous
 62
     7
100
AcDbLine
 10
90.3627751470782
 20
103.55361983223
 30
0.0
 11
89.6127751470782
 21
102.549006482745
 31
0.0
  0
LINE
  5
1FA
330
1F
100
AcDbEntity
  8
Sichtbare_Kanten_TC_020513_DIN_
  6
Continuous
 62
     7
100
AcDbLine
 10
89.6127751470782
 20
102.549006482745
 30
0.0
 11
88.8627751470782
 21
103.55361983223
 31
0.0
  0
LINE
  5
1FB
330
1F
100
AcDbEntity
  8
Sichtbare_Kanten_TC_020513_DIN_
  6
Continuous
 62
     7
100
AcDbLine
 10
88.8627751470782
 20
103.55361983223
 30
0.0
 11
88.8627751470782
 21
101.183388804965
 31
0.0
  0
LINE
  5
1FC
330
1F
100
AcDbEntity
  8
Sichtbare_Kanten_TC_020513_DIN_
  6
Continuous
 62
     7
100
AcDbLine
 10
87.3627751470782
 20
100.617055416101
 30
0.0
 11
87.3627751470782
 21
103.729722193829
 31
0.0
  0
LINE
  5
1FD
330
1F
100
AcDbEntity
  8
Sichtbare_Kanten_TC_020513_DIN_
  6
Continuous
 62
     7
100
AcDbLine
 10
87.8627751470782
 20
103.729722193829
 30
0.0
 11
87.8627751470782
 21
100.761478471666
 31
0.0
  0
LINE
  5
1FE
330
1F
100
AcDbEntity
  8
Sichtbare_Kanten_TC_020513_DIN_
  6
Continuous
 62
     7
100
AcDbLine
 10
87.8627751470782
 20
100.761478471666
 30
0.0
 11
89.7376640945707
 21
99.6802925119451
 31
0.0
  0
LINE
  5
1FF
330
1F
100
AcDbEntity
  8
Sichtbare_Kanten_TC_020513_DIN_
  6
Continuous
 62
     7
100
AcDbLine
 10
89.4878861995857
 20
99.2471516535897
 30
0.0
 11
87.4878861995857
 21
100.400484986923
 31
0.0
  0
LINE
  5
200
330
1F
100
AcDbEntity
  8
Sichtbare_Kanten_TC_020513_DIN_
  6
Continuous
 62
     7
100
AcDbLine
 10
83.1123305420521
 20
102.173388804965
 30
0.0
 11
89.6127751470782
 21
105.921978527197
 31
0.0
  0
LINE
  5
201
330
1F
100
AcDbEntity
  8
Sichtbare_Kanten_TC_020513_DIN_
  6
Continuous
 62
     7
100
AcDbLine
 10
89.6127751470782
 20
105.921978527197
 30
0.0
 11
96.1132197521043
 21
102.173388804965
 31
0.0
  0
LINE
  5
202
330
1F
100
AcDbEntity
  8
Sichtbare_Kanten_TC_020513_DIN_
  6
Continuous
 62
     7
100
AcDbLine
 10
96.1132197521043
 20
102.173388804965
 30
0.0
 11
89.6127751470782
 21
98.4247990827332
 31
0.0
  0
LINE
  5
203
330
1F
100
AcDbEntity
  8
Sichtbare_Kanten_TC_020513_DIN_
  6
Continuous
 62
     7
100
AcDbLine
 10
89.6127751470782
 20
98.4247990827332
 30
0.0
 11
83.1123305420521
 21
102.173388804965
 31
0.0
  0
LINE
  5
204
330
1F
100
AcDbEntity
  8
Sichtbare_Kanten_TC_020513_DIN_
  6
Continuous
 62
     7
100
AcDbLine
 10
89.6127751470782
 20
105.633388804965
 30
0.0
 11
83.6127751470782
 21
102.173388804965
 31
0.0
  0
LINE
  5
205
330
1F
100
AcDbEntity
  8
Sichtbare_Kanten_TC_020513_DIN_
  6
Continuous
 62
     7
100
AcDbLine
 10
95.6127751470782
 20
102.173388804965
 30
0.0
 11
89.6127751470782
 21
105.633388804965
 31
0.0
  0
LINE
  5
206
330
1F
100
AcDbEntity
  8
Sichtbare_Kanten_TC_020513_DIN_
  6
Continuous
 62
     7
100
AcDbLine
 10
89.6127751470782
 20
98.7133888049649
 30
0.0
 11
95.6127751470782
 21
102.173388804965
 31
0.0
  0
LINE
  5
207
330
1F
100
AcDbEntity
  8
Sichtbare_Kanten_TC_020513_DIN_
  6
Continuous
 62
     7
100
AcDbLine
 10
83.6127751470782
 20
102.173388804965
 30
0.0
 11
89.6127751470782
 21
98.7133888049649
 31
0.0
  0
LINE
  5
208
330
1F
100
AcDbEntity
  8
Sichtbare_Kanten_TC_020513_DIN_
  6
Continuous
 62
     7
100
AcDbLine
 10
86.3627751470782
 20
101.183388804965
 30
0.0
 11
86.3627751470782
 21
103.163388804965
 31
0.0
  0
LINE
  5
209
330
1F
100
AcDbEntity
  8
Sichtbare_Kanten_TC_020513_DIN_
  6
Continuous
 62
     7
100
AcDbLine
 10
86.8627751470782
 20
103.163388804965
 30
0.0
 11
86.8627751470782
 21
101.183388804965
 31
0.0
  0
LINE
  5
20A
330
1F
100
AcDbEntity
  8
Sichtbare_Kanten_TC_020513_DIN_
  6
Continuous
 62
     7
100
AcDbLine
 10
91.7376640945707
 20
103.946292623007
 30
0.0
 11
92.7376640945707
 21
103.36962595634
 31
0.0
  0
LINE
  5
20B
330
1F
100
AcDbEntity
  8
Sichtbare_Kanten_TC_020513_DIN_
  6
Continuous
 62
     7
100
AcDbLine
 10
92.4878861995857
 20
102.936485097985
 30
0.0
 11
91.8627751470782
 21
103.296965804931
 31
0.0
  0
LINE
  5
20C
330
1F
100
AcDbEntity
  8
Sichtbare_Kanten_TC_020513_DIN_
  6
Continuous
 62
     7
100
AcDbLine
 10
91.8627751470782
 20
103.296965804931
 30
0.0
 11
91.8627751470782
 21
102.423388804965
 31
0.0
  0
LINE
  5
20D
330
1F
100
AcDbEntity
  8
Sichtbare_Kanten_TC_020513_DIN_
  6
Continuous
 62
     7
100
AcDbLine
 10
91.8627751470782
 20
102.423388804965
 30
0.0
 11
92.6127751470782
 21
102.423388804965
 31
0.0
  0
LINE
  5
20E
330
1F
100
AcDbEntity
  8
Sichtbare_Kanten_TC_020513_DIN_
  6
Continuous
 62
     7
100
AcDbLine
 10
92.6127751470782
 20
101.923388804965
 30
0.0
 11
91.8627751470782
 21
101.923388804965
 31
0.0
  0
LINE
  5
20F
330
1F
100
AcDbEntity
  8
Sichtbare_Kanten_TC_020513_DIN_
  6
Continuous
 62
     7
100
AcDbLine
 10
91.8627751470782
 20
101.923388804965
 30
0.0
 11
91.8627751470782
 21
101.049811804999
 31
0.0
  0
LINE
  5
210
330
1F
100
AcDbEntity
  8
Sichtbare_Kanten_TC_020513_DIN_
  6
Continuous
 62
     7
100
AcDbLine
 10
91.8627751470782
 20
101.049811804999
 30
0.0
 11
92.4878861995857
 21
101.410292511945
 31
0.0
  0
LINE
  5
211
330
1F
100
AcDbEntity
  8
Sichtbare_Kanten_TC_020513_DIN_
  6
Continuous
 62
     7
100
AcDbLine
 10
92.7376640945707
 20
100.97715165359
 30
0.0
 11
91.7376640945707
 21
100.400484986923
 31
0.0
  0
LINE
  5
212
330
1F
100
AcDbEntity
  8
Sichtbare_Kanten_TC_020513_DIN_
  6
Continuous
 62
     7
100
AcDbLine
 10
91.3627751470782
 20
100.617055416101
 30
0.0
 11
91.3627751470782
 21
103.729722193829
 31
0.0
  0
LINE
  5
213
330
1F
100
AcDbEntity
  8
Sichtbare_Kanten_TC_020513_DIN_
  6
Continuous
 62
     7
100
AcDbLine
 10
122.012775147078
 20
103.973388804965
 30
0.0
 11
121.112775147078
 21
104.873388804965
 31
0.0
  0
LINE
  5
214
330
1F
100
AcDbEntity
  8
Sichtbare_Kanten_TC_020513_DIN_
  6
Continuous
 62
     7
100
AcDbLine
 10
122.012775147078
 20
100.373388804965
 30
0.0
 11
121.112775147078
 21
99.473388804965
 31
0.0
  0
LINE
  5
215
330
1F
100
AcDbEntity
  8
Sichtbare_Kanten_TC_020513_DIN_
  6
Continuous
 62
     7
100
AcDbLine
 10
125.612775147078
 20
103.973388804965
 30
0.0
 11
122.012775147078
 21
103.973388804965
 31
0.0
  0
LINE
  5
216
330
1F
100
AcDbEntity
  8
Sichtbare_Kanten_TC_020513_DIN_
  6
Continuous
 62
     7
100
AcDbLine
 10
125.612775147078
 20
100.373388804965
 30
0.0
 11
122.012775147078
 21
100.373388804965
 31
0.0
  0
LINE
  5
217
330
1F
100
AcDbEntity
  8
Sichtbare_Kanten_TC_020513_DIN_
  6
Continuous
 62
     7
100
AcDbLine
 10
122.012775147078
 20
103.973388804965
 30
0.0
 11
122.012775147078
 21
100.373388804965
 31
0.0
  0
LINE
  5
218
330
1F
100
AcDbEntity
  8
Sichtbare_Kanten_TC_020513_DIN_
  6
Continuous
 62
     7
100
AcDbLine
 10
125.612775147078
 20
103.973388804965
 30
0.0
 11
125.612775147078
 21
100.373388804965
 31
0.0
  0
LINE
  5
219
330
1F
100
AcDbEntity
  8
Sichtbare_Kanten_TC_020513_DIN_
  6
Continuous
 62
     7
100
AcDbLine
 10
57.2127751470782
 20
100.373388804965
 30
0.0
 11
58.1127751470782
 21
99.473388804965
 31
0.0
  0
LINE
  5
21A
330
1F
100
AcDbEntity
  8
Sichtbare_Kanten_TC_020513_DIN_
  6
Continuous
 62
     7
100
AcDbLine
 10
57.2127751470782
 20
103.973388804965
 30
0.0
 11
58.1127751470782
 21
104.873388804965
 31
0.0
  0
LINE
  5
21B
330
1F
100
AcDbEntity
  8
Sichtbare_Kanten_TC_020513_DIN_
  6
Continuous
 62
     7
100
AcDbLine
 10
57.2127751470782
 20
103.973388804965
 30
0.0
 11
53.6127751470782
 21
103.973388804965
 31
0.0
  0
LINE
  5
21C
330
1F
100
AcDbEntity
  8
Sichtbare_Kanten_TC_020513_DIN_
  6
Continuous
 62
     7
100
AcDbLine
 10
57.2127751470782
 20
100.373388804965
 30
0.0
 11
53.6127751470782
 21
100.373388804965
 31
0.0
  0
LINE
  5
21D
330
1F
100
AcDbEntity
  8
Sichtbare_Kanten_TC_020513_DIN_
  6
Continuous
 62
     7
100
AcDbLine
 10
57.2127751470782
 20
103.973388804965
 30
0.0
 11
57.2127751470782
 21
100.373388804965
 31
0.0
  0
LINE
  5
21E
330
1F
100
AcDbEntity
  8
Sichtbare_Kanten_TC_020513_DIN_
  6
Continuous
 62
     7
100
AcDbLine
 10
53.6127751470782
 20
103.973388804965
 30
0.0
 11
53.6127751470782
 21
100.373388804965
 31
0.0
  0
LINE
  5
21F
330
1F
100
AcDbEntity
  8
Sichtbare_Kanten_TC_020513_DIN_
  6
Continuous
 62
     7
100
AcDbLine
 10
67.2220085964316
 20
154.923388804965
 30
0.0
 11
112.003541697725
 21
154.923388804965
 31
0.0
  0
LINE
  5
220
330
1F
100
AcDbEntity
  8
Sichtbare_Kanten_TC_020513_DIN_
  6
Continuous
 62
     7
100
AcDbLine
 10
112.264411262942
 20
153.923388804965
 30
0.0
 11
66.9611390312142
 21
153.923388804965
 31
0.0
  0
LINE
  5
221
330
1F
100
AcDbEntity
  8
Sichtbare_Kanten_TC_020513_DIN_
  6
Continuous
 62
     7
100
AcDbLine
 10
118.970613031947
 20
128.923388804965
 30
0.0
 11
60.2549372622091
 21
128.923388804965
 31
0.0
  0
LINE
  5
222
330
1F
100
AcDbEntity
  8
Sichtbare_Kanten_TC_020513_DIN_
  6
Continuous
 62
     7
100
AcDbLine
 10
118.70974346673
 20
129.923388804965
 30
0.0
 11
60.5158068274264
 21
129.923388804965
 31
0.0
  0
LINE
  5
223
330
1F
100
AcDbEntity
  8
Sichtbare_Kanten_TC_020513_DIN_
  6
Continuous
 62
     7
100
AcDbLine
 10
58.8127751470782
 20
111.123388804965
 30
0.0
 11
58.8127751470782
 21
111.223388804965
 31
0.0
  0
LINE
  5
224
330
1F
100
AcDbEntity
  8
Sichtbare_Kanten_TC_020513_DIN_
  6
Continuous
 62
     7
100
AcDbLine
 10
120.412775147078
 20
111.123388804965
 30
0.0
 11
120.412775147078
 21
111.223388804965
 31
0.0
  0
LINE
  5
225
330
1F
100
AcDbEntity
  8
Sichtbare_Kanten_TC_020513_DIN_
  6
Continuous
 62
     7
100
AcDbLine
 10
58.1127751470782
 20
111.923388804965
 30
0.0
 11
58.1127751470782
 21
110.423388804965
 31
0.0
  0
LINE
  5
226
330
1F
100
AcDbEntity
  8
Sichtbare_Kanten_TC_020513_DIN_
  6
Continuous
 62
     7
100
AcDbLine
 10
121.112775147078
 20
110.423388804965
 30
0.0
 11
121.112775147078
 21
111.923388804965
 31
0.0
  0
LINE
  5
227
330
1F
100
AcDbEntity
  8
Sichtbare_Kanten_TC_020513_DIN_
  6
Continuous
 62
     7
100
AcDbLine
 10
58.8127751470782
 20
112.723388804965
 30
0.0
 11
58.8127751470782
 21
112.823388804965
 31
0.0
  0
LINE
  5
228
330
1F
100
AcDbEntity
  8
Sichtbare_Kanten_TC_020513_DIN_
  6
Continuous
 62
     7
100
AcDbLine
 10
120.412775147078
 20
112.723388804965
 30
0.0
 11
120.412775147078
 21
112.823388804965
 31
0.0
  0
LINE
  5
229
330
1F
100
AcDbEntity
  8
Sichtbare_Kanten_TC_020513_DIN_
  6
Continuous
 62
     7
100
AcDbLine
 10
58.8127751470782
 20
114.323388804965
 30
0.0
 11
58.8127751470782
 21
114.423388804965
 31
0.0
  0
LINE
  5
22A
330
1F
100
AcDbEntity
  8
Sichtbare_Kanten_TC_020513_DIN_
  6
Continuous
 62
     7
100
AcDbLine
 10
120.412775147078
 20
114.323388804965
 30
0.0
 11
120.412775147078
 21
114.423388804965
 31
0.0
  0
LINE
  5
22B
330
1F
100
AcDbEntity
  8
Sichtbare_Kanten_TC_020513_DIN_
  6
Continuous
 62
     7
100
AcDbLine
 10
58.8127751470782
 20
115.923388804965
 30
0.0
 11
58.8127751470782
 21
116.023388804965
 31
0.0
  0
LINE
  5
22C
330
1F
100
AcDbEntity
  8
Sichtbare_Kanten_TC_020513_DIN_
  6
Continuous
 62
     7
100
AcDbLine
 10
120.412775147078
 20
115.923388804965
 30
0.0
 11
120.412775147078
 21
116.023388804965
 31
0.0
  0
LINE
  5
22D
330
1F
100
AcDbEntity
  8
Sichtbare_Kanten_TC_020513_DIN_
  6
Continuous
 62
     7
100
AcDbLine
 10
62.1127751470782
 20
112.023388804965
 30
0.0
 11
58.1127751470782
 21
112.023388804965
 31
0.0
  0
LINE
  5
22E
330
1F
100
AcDbEntity
  8
Sichtbare_Kanten_TC_020513_DIN_
  6
Continuous
 62
     7
100
AcDbLine
 10
58.8127751470782
 20
112.723388804965
 30
0.0
 11
58.1127751470782
 21
112.023388804965
 31
0.0
  0
LINE
  5
22F
330
1F
100
AcDbEntity
  8
Sichtbare_Kanten_TC_020513_DIN_
  6
Continuous
 62
     7
100
AcDbLine
 10
58.8127751470782
 20
112.723388804965
 30
0.0
 11
62.1127751470782
 21
112.723388804965
 31
0.0
  0
LINE
  5
230
330
1F
100
AcDbEntity
  8
Sichtbare_Kanten_TC_020513_DIN_
  6
Continuous
 62
     7
100
AcDbLine
 10
62.1127751470782
 20
112.023388804965
 30
0.0
 11
117.112775147078
 21
112.023388804965
 31
0.0
  0
LINE
  5
231
330
1F
100
AcDbEntity
  8
Sichtbare_Kanten_TC_020513_DIN_
  6
Continuous
 62
     7
100
AcDbLine
 10
117.112775147078
 20
112.723388804965
 30
0.0
 11
62.1127751470782
 21
112.723388804965
 31
0.0
  0
LINE
  5
232
330
1F
100
AcDbEntity
  8
Sichtbare_Kanten_TC_020513_DIN_
  6
Continuous
 62
     7
100
AcDbLine
 10
121.112775147078
 20
112.023388804965
 30
0.0
 11
117.112775147078
 21
112.023388804965
 31
0.0
  0
LINE
  5
233
330
1F
100
AcDbEntity
  8
Sichtbare_Kanten_TC_020513_DIN_
  6
Continuous
 62
     7
100
AcDbLine
 10
117.112775147078
 20
112.723388804965
 30
0.0
 11
120.412775147078
 21
112.723388804965
 31
0.0
  0
LINE
  5
234
330
1F
100
AcDbEntity
  8
Sichtbare_Kanten_TC_020513_DIN_
  6
Continuous
 62
     7
100
AcDbLine
 10
121.112775147078
 20
112.023388804965
 30
0.0
 11
120.412775147078
 21
112.723388804965
 31
0.0
  0
LINE
  5
235
330
1F
100
AcDbEntity
  8
Sichtbare_Kanten_TC_020513_DIN_
  6
Continuous
 62
     7
100
AcDbLine
 10
62.1127751470782
 20
112.823388804965
 30
0.0
 11
58.8127751470782
 21
112.823388804965
 31
0.0
  0
LINE
  5
236
330
1F
100
AcDbEntity
  8
Sichtbare_Kanten_TC_020513_DIN_
  6
Continuous
 62
     7
100
AcDbLine
 10
58.1127751470782
 20
113.523388804965
 30
0.0
 11
58.8127751470782
 21
112.823388804965
 31
0.0
  0
LINE
  5
237
330
1F
100
AcDbEntity
  8
Sichtbare_Kanten_TC_020513_DIN_
  6
Continuous
 62
     7
100
AcDbLine
 10
117.112775147078
 20
113.523388804965
 30
0.0
 11
62.1127751470782
 21
113.523388804965
 31
0.0
  0
LINE
  5
238
330
1F
100
AcDbEntity
  8
Sichtbare_Kanten_TC_020513_DIN_
  6
Continuous
 62
     7
100
AcDbLine
 10
62.1127751470782
 20
112.823388804965
 30
0.0
 11
117.112775147078
 21
112.823388804965
 31
0.0
  0
LINE
  5
239
330
1F
100
AcDbEntity
  8
Sichtbare_Kanten_TC_020513_DIN_
  6
Continuous
 62
     7
100
AcDbLine
 10
117.112775147078
 20
113.523388804965
 30
0.0
 11
121.112775147078
 21
113.523388804965
 31
0.0
  0
LINE
  5
23A
330
1F
100
AcDbEntity
  8
Sichtbare_Kanten_TC_020513_DIN_
  6
Continuous
 62
     7
100
AcDbLine
 10
120.412775147078
 20
112.823388804965
 30
0.0
 11
117.112775147078
 21
112.823388804965
 31
0.0
  0
LINE
  5
23B
330
1F
100
AcDbEntity
  8
Sichtbare_Kanten_TC_020513_DIN_
  6
Continuous
 62
     7
100
AcDbLine
 10
121.112775147078
 20
113.523388804965
 30
0.0
 11
120.412775147078
 21
112.823388804965
 31
0.0
  0
LINE
  5
23C
330
1F
100
AcDbEntity
  8
Sichtbare_Kanten_TC_020513_DIN_
  6
Continuous
 62
     7
100
AcDbLine
 10
58.1127751470782
 20
113.523388804965
 30
0.0
 11
62.1127751470782
 21
113.523388804965
 31
0.0
  0
LINE
  5
23D
330
1F
100
AcDbEntity
  8
Sichtbare_Kanten_TC_020513_DIN_
  6
Continuous
 62
     7
100
AcDbLine
 10
62.1127751470782
 20
113.623388804965
 30
0.0
 11
58.1127751470782
 21
113.623388804965
 31
0.0
  0
LINE
  5
23E
330
1F
100
AcDbEntity
  8
Sichtbare_Kanten_TC_020513_DIN_
  6
Continuous
 62
     7
100
AcDbLine
 10
58.8127751470782
 20
114.323388804965
 30
0.0
 11
58.1127751470782
 21
113.623388804965
 31
0.0
  0
LINE
  5
23F
330
1F
100
AcDbEntity
  8
Sichtbare_Kanten_TC_020513_DIN_
  6
Continuous
 62
     7
100
AcDbLine
 10
58.8127751470782
 20
114.323388804965
 30
0.0
 11
62.1127751470782
 21
114.323388804965
 31
0.0
  0
LINE
  5
240
330
1F
100
AcDbEntity
  8
Sichtbare_Kanten_TC_020513_DIN_
  6
Continuous
 62
     7
100
AcDbLine
 10
62.1127751470782
 20
113.623388804965
 30
0.0
 11
117.112775147078
 21
113.623388804965
 31
0.0
  0
LINE
  5
241
330
1F
100
AcDbEntity
  8
Sichtbare_Kanten_TC_020513_DIN_
  6
Continuous
 62
     7
100
AcDbLine
 10
117.112775147078
 20
114.323388804965
 30
0.0
 11
62.1127751470782
 21
114.323388804965
 31
0.0
  0
LINE
  5
242
330
1F
100
AcDbEntity
  8
Sichtbare_Kanten_TC_020513_DIN_
  6
Continuous
 62
     7
100
AcDbLine
 10
121.112775147078
 20
113.623388804965
 30
0.0
 11
117.112775147078
 21
113.623388804965
 31
0.0
  0
LINE
  5
243
330
1F
100
AcDbEntity
  8
Sichtbare_Kanten_TC_020513_DIN_
  6
Continuous
 62
     7
100
AcDbLine
 10
117.112775147078
 20
114.323388804965
 30
0.0
 11
120.412775147078
 21
114.323388804965
 31
0.0
  0
LINE
  5
244
330
1F
100
AcDbEntity
  8
Sichtbare_Kanten_TC_020513_DIN_
  6
Continuous
 62
     7
100
AcDbLine
 10
121.112775147078
 20
113.623388804965
 30
0.0
 11
120.412775147078
 21
114.323388804965
 31
0.0
  0
LINE
  5
245
330
1F
100
AcDbEntity
  8
Sichtbare_Kanten_TC_020513_DIN_
  6
Continuous
 62
     7
100
AcDbLine
 10
120.412775147078
 20
114.423388804965
 30
0.0
 11
121.112775147078
 21
115.123388804965
 31
0.0
  0
LINE
  5
246
330
1F
100
AcDbEntity
  8
Sichtbare_Kanten_TC_020513_DIN_
  6
Continuous
 62
     7
100
AcDbLine
 10
120.412775147078
 20
114.423388804965
 30
0.0
 11
117.112775147078
 21
114.423388804965
 31
0.0
  0
LINE
  5
247
330
1F
100
AcDbEntity
  8
Sichtbare_Kanten_TC_020513_DIN_
  6
Continuous
 62
     7
100
AcDbLine
 10
117.112775147078
 20
115.123388804965
 30
0.0
 11
62.1127751470782
 21
115.123388804965
 31
0.0
  0
LINE
  5
248
330
1F
100
AcDbEntity
  8
Sichtbare_Kanten_TC_020513_DIN_
  6
Continuous
 62
     7
100
AcDbLine
 10
62.1127751470782
 20
114.423388804965
 30
0.0
 11
117.112775147078
 21
114.423388804965
 31
0.0
  0
LINE
  5
249
330
1F
100
AcDbEntity
  8
Sichtbare_Kanten_TC_020513_DIN_
  6
Continuous
 62
     7
100
AcDbLine
 10
58.1127751470782
 20
115.123388804965
 30
0.0
 11
62.1127751470782
 21
115.123388804965
 31
0.0
  0
LINE
  5
24A
330
1F
100
AcDbEntity
  8
Sichtbare_Kanten_TC_020513_DIN_
  6
Continuous
 62
     7
100
AcDbLine
 10
62.1127751470782
 20
114.423388804965
 30
0.0
 11
58.8127751470782
 21
114.423388804965
 31
0.0
  0
LINE
  5
24B
330
1F
100
AcDbEntity
  8
Sichtbare_Kanten_TC_020513_DIN_
  6
Continuous
 62
     7
100
AcDbLine
 10
58.8127751470782
 20
114.423388804965
 30
0.0
 11
58.1127751470782
 21
115.123388804965
 31
0.0
  0
LINE
  5
24C
330
1F
100
AcDbEntity
  8
Sichtbare_Kanten_TC_020513_DIN_
  6
Continuous
 62
     7
100
AcDbLine
 10
117.112775147078
 20
115.123388804965
 30
0.0
 11
121.112775147078
 21
115.123388804965
 31
0.0
  0
LINE
  5
24D
330
1F
100
AcDbEntity
  8
Sichtbare_Kanten_TC_020513_DIN_
  6
Continuous
 62
     7
100
AcDbLine
 10
62.1127751470782
 20
115.223388804965
 30
0.0
 11
58.1127751470782
 21
115.223388804965
 31
0.0
  0
LINE
  5
24E
330
1F
100
AcDbEntity
  8
Sichtbare_Kanten_TC_020513_DIN_
  6
Continuous
 62
     7
100
AcDbLine
 10
58.8127751470782
 20
115.923388804965
 30
0.0
 11
58.1127751470782
 21
115.223388804965
 31
0.0
  0
LINE
  5
24F
330
1F
100
AcDbEntity
  8
Sichtbare_Kanten_TC_020513_DIN_
  6
Continuous
 62
     7
100
AcDbLine
 10
58.8127751470782
 20
115.923388804965
 30
0.0
 11
62.1127751470782
 21
115.923388804965
 31
0.0
  0
LINE
  5
250
330
1F
100
AcDbEntity
  8
Sichtbare_Kanten_TC_020513_DIN_
  6
Continuous
 62
     7
100
AcDbLine
 10
62.1127751470782
 20
115.223388804965
 30
0.0
 11
117.112775147078
 21
115.223388804965
 31
0.0
  0
LINE
  5
251
330
1F
100
AcDbEntity
  8
Sichtbare_Kanten_TC_020513_DIN_
  6
Continuous
 62
     7
100
AcDbLine
 10
117.112775147078
 20
115.923388804965
 30
0.0
 11
62.1127751470782
 21
115.923388804965
 31
0.0
  0
LINE
  5
252
330
1F
100
AcDbEntity
  8
Sichtbare_Kanten_TC_020513_DIN_
  6
Continuous
 62
     7
100
AcDbLine
 10
121.112775147078
 20
115.223388804965
 30
0.0
 11
117.112775147078
 21
115.223388804965
 31
0.0
  0
LINE
  5
253
330
1F
100
AcDbEntity
  8
Sichtbare_Kanten_TC_020513_DIN_
  6
Continuous
 62
     7
100
AcDbLine
 10
117.112775147078
 20
115.923388804965
 30
0.0
 11
120.412775147078
 21
115.923388804965
 31
0.0
  0
LINE
  5
254
330
1F
100
AcDbEntity
  8
Sichtbare_Kanten_TC_020513_DIN_
  6
Continuous
 62
     7
100
AcDbLine
 10
121.112775147078
 20
115.223388804965
 30
0.0
 11
120.412775147078
 21
115.923388804965
 31
0.0
  0
LINE
  5
255
330
1F
100
AcDbEntity
  8
Sichtbare_Kanten_TC_020513_DIN_
  6
Continuous
 62
     7
100
AcDbLine
 10
58.1127751470782
 20
116.723388804965
 30
0.0
 11
58.1127751470782
 21
115.223388804965
 31
0.0
  0
LINE
  5
256
330
1F
100
AcDbEntity
  8
Sichtbare_Kanten_TC_020513_DIN_
  6
Continuous
 62
     7
100
AcDbLine
 10
58.1127751470782
 20
115.123388804965
 30
0.0
 11
58.1127751470782
 21
113.623388804965
 31
0.0
  0
LINE
  5
257
330
1F
100
AcDbEntity
  8
Sichtbare_Kanten_TC_020513_DIN_
  6
Continuous
 62
     7
100
AcDbLine
 10
58.1127751470782
 20
113.523388804965
 30
0.0
 11
58.1127751470782
 21
112.023388804965
 31
0.0
  0
LINE
  5
258
330
1F
100
AcDbEntity
  8
Sichtbare_Kanten_TC_020513_DIN_
  6
Continuous
 62
     7
100
AcDbLine
 10
58.1127751470782
 20
116.723388804965
 30
0.0
 11
62.1127751470782
 21
116.723388804965
 31
0.0
  0
LINE
  5
259
330
1F
100
AcDbEntity
  8
Sichtbare_Kanten_TC_020513_DIN_
  6
Continuous
 62
     7
100
AcDbLine
 10
62.1127751470782
 20
116.023388804965
 30
0.0
 11
58.8127751470782
 21
116.023388804965
 31
0.0
  0
LINE
  5
25A
330
1F
100
AcDbEntity
  8
Sichtbare_Kanten_TC_020513_DIN_
  6
Continuous
 62
     7
100
AcDbLine
 10
58.1127751470782
 20
116.723388804965
 30
0.0
 11
58.8127751470782
 21
116.023388804965
 31
0.0
  0
LINE
  5
25B
330
1F
100
AcDbEntity
  8
Sichtbare_Kanten_TC_020513_DIN_
  6
Continuous
 62
     7
100
AcDbLine
 10
117.112775147078
 20
116.723388804965
 30
0.0
 11
62.1127751470782
 21
116.723388804965
 31
0.0
  0
LINE
  5
25C
330
1F
100
AcDbEntity
  8
Sichtbare_Kanten_TC_020513_DIN_
  6
Continuous
 62
     7
100
AcDbLine
 10
62.1127751470782
 20
116.023388804965
 30
0.0
 11
117.112775147078
 21
116.023388804965
 31
0.0
  0
LINE
  5
25D
330
1F
100
AcDbEntity
  8
Sichtbare_Kanten_TC_020513_DIN_
  6
Continuous
 62
     7
100
AcDbLine
 10
117.112775147078
 20
116.723388804965
 30
0.0
 11
121.112775147078
 21
116.723388804965
 31
0.0
  0
LINE
  5
25E
330
1F
100
AcDbEntity
  8
Sichtbare_Kanten_TC_020513_DIN_
  6
Continuous
 62
     7
100
AcDbLine
 10
120.412775147078
 20
116.023388804965
 30
0.0
 11
117.112775147078
 21
116.023388804965
 31
0.0
  0
LINE
  5
25F
330
1F
100
AcDbEntity
  8
Sichtbare_Kanten_TC_020513_DIN_
  6
Continuous
 62
     7
100
AcDbLine
 10
121.112775147078
 20
116.723388804965
 30
0.0
 11
120.412775147078
 21
116.023388804965
 31
0.0
  0
LINE
  5
260
330
1F
100
AcDbEntity
  8
Sichtbare_Kanten_TC_020513_DIN_
  6
Continuous
 62
     7
100
AcDbLine
 10
121.112775147078
 20
112.023388804965
 30
0.0
 11
121.112775147078
 21
113.523388804965
 31
0.0
  0
LINE
  5
261
330
1F
100
AcDbEntity
  8
Sichtbare_Kanten_TC_020513_DIN_
  6
Continuous
 62
     7
100
AcDbLine
 10
121.112775147078
 20
113.623388804965
 30
0.0
 11
121.112775147078
 21
115.123388804965
 31
0.0
  0
LINE
  5
262
330
1F
100
AcDbEntity
  8
Sichtbare_Kanten_TC_020513_DIN_
  6
Continuous
 62
     7
100
AcDbLine
 10
121.112775147078
 20
115.223388804965
 30
0.0
 11
121.112775147078
 21
116.723388804965
 31
0.0
  0
LINE
  5
263
330
1F
100
AcDbEntity
  8
Sichtbare_Kanten_TC_020513_DIN_
  6
Continuous
 62
     7
100
AcDbLine
 10
58.1127751470782
 20
116.723388804965
 30
0.0
 11
58.1127751470782
 21
124.416812588962
 31
0.0
  0
LINE
  5
264
330
1F
100
AcDbEntity
  8
Sichtbare_Kanten_TC_020513_DIN_
  6
Continuous
 62
     7
100
AcDbLine
 10
58.1127751470782
 20
115.123388804965
 30
0.0
 11
58.1127751470782
 21
115.223388804965
 31
0.0
  0
LINE
  5
265
330
1F
100
AcDbEntity
  8
Sichtbare_Kanten_TC_020513_DIN_
  6
Continuous
 62
     7
100
AcDbLine
 10
58.1127751470782
 20
113.523388804965
 30
0.0
 11
58.1127751470782
 21
113.623388804965
 31
0.0
  0
LINE
  5
266
330
1F
100
AcDbEntity
  8
Sichtbare_Kanten_TC_020513_DIN_
  6
Continuous
 62
     7
100
AcDbLine
 10
58.1127751470782
 20
111.923388804965
 30
0.0
 11
58.1127751470782
 21
112.023388804965
 31
0.0
  0
LINE
  5
267
330
1F
100
AcDbEntity
  8
Sichtbare_Kanten_TC_020513_DIN_
  6
Continuous
 62
     7
100
AcDbLine
 10
58.1127751470782
 20
97.6733888049649
 30
0.0
 11
58.1127751470782
 21
110.423388804965
 31
0.0
  0
LINE
  5
268
330
1F
100
AcDbEntity
  8
Sichtbare_Kanten_TC_020513_DIN_
  6
Continuous
 62
     7
100
AcDbLine
 10
121.112775147078
 20
97.6733888049649
 30
0.0
 11
121.112775147078
 21
110.423388804965
 31
0.0
  0
LINE
  5
269
330
1F
100
AcDbEntity
  8
Sichtbare_Kanten_TC_020513_DIN_
  6
Continuous
 62
     7
100
AcDbLine
 10
121.112775147078
 20
111.923388804965
 30
0.0
 11
121.112775147078
 21
112.023388804965
 31
0.0
  0
LINE
  5
26A
330
1F
100
AcDbEntity
  8
Sichtbare_Kanten_TC_020513_DIN_
  6
Continuous
 62
     7
100
AcDbLine
 10
121.112775147078
 20
113.523388804965
 30
0.0
 11
121.112775147078
 21
113.623388804965
 31
0.0
  0
LINE
  5
26B
330
1F
100
AcDbEntity
  8
Sichtbare_Kanten_TC_020513_DIN_
  6
Continuous
 62
     7
100
AcDbLine
 10
121.112775147078
 20
115.123388804965
 30
0.0
 11
121.112775147078
 21
115.223388804965
 31
0.0
  0
LINE
  5
26C
330
1F
100
AcDbEntity
  8
Sichtbare_Kanten_TC_020513_DIN_
  6
Continuous
 62
     7
100
AcDbLine
 10
121.112775147078
 20
116.723388804965
 30
0.0
 11
121.112775147078
 21
124.416812588962
 31
0.0
  0
LINE
  5
26D
330
1F
100
AcDbEntity
  8
Sichtbare_Kanten_TC_020513_DIN_
  6
Continuous
 62
     7
100
AcDbLine
 10
59.4071111752525
 20
124.673388804965
 30
0.0
 11
119.818439118904
 21
124.673388804965
 31
0.0
  0
LINE
  5
26E
330
1F
100
AcDbEntity
  8
Sichtbare_Kanten_TC_020513_DIN_
  6
Continuous
 62
     7
100
AcDbLine
 10
113.047565896769
 20
155.590024264485
 30
0.0
 11
112.307795521735
 21
158.425810702112
 31
0.0
  0
LINE
  5
26F
330
1F
100
AcDbEntity
  8
Sichtbare_Kanten_TC_020513_DIN_
  6
Continuous
 62
     7
100
AcDbLine
 10
111.340178249339
 20
159.173388804965
 30
0.0
 11
67.8853720448177
 21
159.173388804965
 31
0.0
  0
LINE
  5
270
330
1F
100
AcDbEntity
  8
Sichtbare_Kanten_TC_020513_DIN_
  6
Continuous
 62
     7
100
AcDbLine
 10
113.308435461986
 20
154.590024264485
 30
0.0
 11
113.047565896769
 21
155.590024264485
 31
0.0
  0
LINE
  5
271
330
1F
100
AcDbEntity
  8
Sichtbare_Kanten_TC_020513_DIN_
  6
Continuous
 62
     7
100
AcDbLine
 10
119.78541645105
 20
129.761597139739
 30
0.0
 11
113.308435461986
 21
154.590024264485
 31
0.0
  0
LINE
  5
272
330
1F
100
AcDbEntity
  8
Sichtbare_Kanten_TC_020513_DIN_
  6
Continuous
 62
     7
100
AcDbLine
 10
120.046286016268
 20
128.761597139739
 30
0.0
 11
119.78541645105
 21
129.761597139739
 31
0.0
  0
LINE
  5
273
330
1F
100
AcDbEntity
  8
Sichtbare_Kanten_TC_020513_DIN_
  6
Continuous
 62
     7
100
AcDbLine
 10
120.786056391301
 20
125.925810702112
 30
0.0
 11
120.046286016268
 21
128.761597139739
 31
0.0
  0
LINE
  5
274
330
1F
100
AcDbEntity
  8
Sichtbare_Kanten_TC_020513_DIN_
  6
Continuous
 62
     7
100
AcDbLine
 10
66.9177547724209
 20
158.425810702112
 30
0.0
 11
66.1779843973878
 21
155.590024264485
 31
0.0
  0
LINE
  5
275
330
1F
100
AcDbEntity
  8
Sichtbare_Kanten_TC_020513_DIN_
  6
Continuous
 62
     7
100
AcDbLine
 10
66.1779843973878
 20
155.590024264485
 30
0.0
 11
65.9171148321704
 21
154.590024264485
 31
0.0
  0
LINE
  5
276
330
1F
100
AcDbEntity
  8
Sichtbare_Kanten_TC_020513_DIN_
  6
Continuous
 62
     7
100
AcDbLine
 10
65.9171148321704
 20
154.590024264485
 30
0.0
 11
59.4401338431062
 21
129.761597139739
 31
0.0
  0
LINE
  5
277
330
1F
100
AcDbEntity
  8
Sichtbare_Kanten_TC_020513_DIN_
  6
Continuous
 62
     7
100
AcDbLine
 10
59.4401338431062
 20
129.761597139739
 30
0.0
 11
59.1792642778888
 21
128.761597139739
 31
0.0
  0
LINE
  5
278
330
1F
100
AcDbEntity
  8
Sichtbare_Kanten_TC_020513_DIN_
  6
Continuous
 62
     7
100
AcDbLine
 10
59.1792642778888
 20
128.761597139739
 30
0.0
 11
58.4394939028557
 21
125.925810702112
 31
0.0
  0
LINE
  5
279
330
1F
100
AcDbEntity
  8
Sichtbare_Kanten_TC_020513_DIN_
  6
Continuous
 62
     7
100
AcDbLine
 10
120.786056391301
 20
125.925810702112
 30
0.0
 11
121.048009691872
 21
124.921656383256
 31
0.0
  0
LINE
  5
27A
330
1F
100
AcDbEntity
  8
Sichtbare_Kanten_TC_020513_DIN_
  6
Continuous
 62
     7
100
AcDbLine
 10
58.1775406022845
 20
124.921656383256
 30
0.0
 11
58.4394939028557
 21
125.925810702112
 31
0.0
  0
LINE
  5
27B
330
1F
100
AcDbEntity
  8
Sichtbare_Kanten_TC_020513_DIN_
  6
Continuous
 62
     7
100
AcDbLine
 10
127.875032396286
 20
156.194913582359
 30
0.0
 11
113.844581946532
 21
152.534796073727
 31
0.0
  0
LINE
  5
27C
330
1F
100
AcDbEntity
  8
Sichtbare_Kanten_TC_020513_DIN_
  6
Continuous
 62
     7
100
AcDbLine
 10
133.933157927814
 20
132.972099044834
 30
0.0
 11
119.90270747806
 21
129.311981536203
 31
0.0
  0
LINE
  5
27D
330
1F
100
AcDbEntity
  8
Sichtbare_Kanten_TC_020513_DIN_
  6
Continuous
 62
     7
100
AcDbLine
 10
127.875032396286
 20
156.194913582359
 30
0.0
 11
133.933157927814
 21
132.972099044834
 31
0.0
  0
ARC
  5
27E
330
1F
100
AcDbEntity
  8
Sichtbare_Kanten_TC_020513_DIN_
  6
Continuous
 62
     7
100
AcDbCircle
 10
188.398494352001
 20
158.173388804965
 30
0.0
 40
1.0
100
AcDbArc
 50
90.0
 51
180.0
  0
ARC
  5
27F
330
1F
100
AcDbEntity
  8
Sichtbare_Kanten_TC_020513_DIN_
  6
Continuous
 62
     7
100
AcDbCircle
 10
222.398494352001
 20
158.173388804965
 30
0.0
 40
1.0
100
AcDbArc
 50
0.0
 51
90.0
  0
ARC
  5
280
330
1F
100
AcDbEntity
  8
Sichtbare_Kanten_TC_020513_DIN_
  6
Continuous
 62
     7
100
AcDbCircle
 10
188.398494351998
 20
125.673388804965
 30
0.0
 40
1.0
100
AcDbArc
 50
180.0
 51
270.0
  0
ARC
  5
281
330
1F
100
AcDbEntity
  8
Sichtbare_Kanten_TC_020513_DIN_
  6
Continuous
 62
     7
100
AcDbCircle
 10
222.398494351998
 20
125.673388804965
 30
0.0
 40
1.0
100
AcDbArc
 50
270.0
 51
0.0
  0
ARC
  5
282
330
1F
100
AcDbEntity
  8
Sichtbare_Kanten_TC_020513_DIN_
  6
Continuous
 62
     7
100
AcDbCircle
 10
88.6127751470782
 20
104.306388860496
 30
0.0
 40
0.2500000000001515
100
AcDbArc
 50
36.74339513788268
 51
180.0
  0
ARC
  5
283
330
1F
100
AcDbEntity
  8
Sichtbare_Kanten_TC_020513_DIN_
  6
Continuous
 62
     7
100
AcDbCircle
 10
90.6127751470782
 20
104.306388860496
 30
0.0
 40
0.25
100
AcDbArc
 50
0.0
 51
143.2566048621173
  0
ARC
  5
284
330
1F
100
AcDbEntity
  8
Sichtbare_Kanten_TC_020513_DIN_
  6
Continuous
 62
     7
100
AcDbCircle
 10
90.6127751470782
 20
100.040388749434
 30
0.0
 40
0.25
100
AcDbArc
 50
180.0
 51
0.0
  0
ARC
  5
285
330
1F
100
AcDbEntity
  8
Sichtbare_Kanten_TC_020513_DIN_
  6
Continuous
 62
     7
100
AcDbCircle
 10
88.6127751470782
 20
101.183388804965
 30
0.0
 40
0.25
100
AcDbArc
 50
180.0
 51
0.0
  0
ARC
  5
286
330
1F
100
AcDbEntity
  8
Sichtbare_Kanten_TC_020513_DIN_
  6
Continuous
 62
     7
100
AcDbCircle
 10
87.6127751470782
 20
103.729722193829
 30
0.0
 40
0.25
100
AcDbArc
 50
0.0
 51
180.0
  0
ARC
  5
287
330
1F
100
AcDbEntity
  8
Sichtbare_Kanten_TC_020513_DIN_
  6
Continuous
 62
     7
100
AcDbCircle
 10
89.6127751470782
 20
99.4637220827674
 30
0.0
 40
0.2499999999999985
100
AcDbArc
 50
240.0293843500135
 51
60.02938435000912
  0
ARC
  5
288
330
1F
100
AcDbEntity
  8
Sichtbare_Kanten_TC_020513_DIN_
  6
Continuous
 62
     7
100
AcDbCircle
 10
87.6127751470782
 20
100.617055416101
 30
0.0
 40
0.25
100
AcDbArc
 50
180.0
 51
240.0293843500461
  0
ARC
  5
289
330
1F
100
AcDbEntity
  8
Sichtbare_Kanten_TC_020513_DIN_
  6
Continuous
 62
     7
100
AcDbCircle
 10
86.6127751470782
 20
103.163388804965
 30
0.0
 40
0.25
100
AcDbArc
 50
0.0
 51
180.0
  0
ARC
  5
28A
330
1F
100
AcDbEntity
  8
Sichtbare_Kanten_TC_020513_DIN_
  6
Continuous
 62
     7
100
AcDbCircle
 10
86.6127751470782
 20
101.183388804965
 30
0.0
 40
0.25
100
AcDbArc
 50
180.0
 51
0.0
  0
ARC
  5
28B
330
1F
100
AcDbEntity
  8
Sichtbare_Kanten_TC_020513_DIN_
  6
Continuous
 62
     7
100
AcDbCircle
 10
91.6127751470782
 20
103.729722193829
 30
0.0
 40
0.2500000000002519
100
AcDbArc
 50
60.02938435004329
 51
180.0
  0
ARC
  5
28C
330
1F
100
AcDbEntity
  8
Sichtbare_Kanten_TC_020513_DIN_
  6
Continuous
 62
     7
100
AcDbCircle
 10
92.6127751470782
 20
103.153055527162
 30
0.0
 40
0.249999999999383
100
AcDbArc
 50
240.0293843499323
 51
60.02938435004491
  0
ARC
  5
28D
330
1F
100
AcDbEntity
  8
Sichtbare_Kanten_TC_020513_DIN_
  6
Continuous
 62
     7
100
AcDbCircle
 10
92.6127751470782
 20
102.173388804965
 30
0.0
 40
0.25
100
AcDbArc
 50
270.0
 51
90.0
  0
ARC
  5
28E
330
1F
100
AcDbEntity
  8
Sichtbare_Kanten_TC_020513_DIN_
  6
Continuous
 62
     7
100
AcDbCircle
 10
92.6127751470782
 20
101.193722082767
 30
0.0
 40
0.2499999999993901
100
AcDbArc
 50
299.9706156500706
 51
119.9706156499523
  0
ARC
  5
28F
330
1F
100
AcDbEntity
  8
Sichtbare_Kanten_TC_020513_DIN_
  6
Continuous
 62
     7
100
AcDbCircle
 10
91.6127751470782
 20
100.617055416101
 30
0.0
 40
0.25
100
AcDbArc
 50
180.0
 51
299.9706156499567
  0
ARC
  5
290
330
1F
100
AcDbEntity
  8
Sichtbare_Kanten_TC_020513_DIN_
  6
Continuous
 62
     7
100
AcDbCircle
 10
111.340178249339
 20
158.173388804965
 30
0.0
 40
0.9999999999991812
100
AcDbArc
 50
14.62087398864385
 51
90.0
  0
ARC
  5
291
330
1F
100
AcDbEntity
  8
Sichtbare_Kanten_TC_020513_DIN_
  6
Continuous
 62
     7
100
AcDbCircle
 10
67.8853720448178
 20
158.173388804965
 30
0.0
 40
1.0
100
AcDbArc
 50
90.0000000000057
 51
165.3791260113691
  0
ARC
  5
292
330
1F
100
AcDbEntity
  8
Sichtbare_Kanten_TC_020513_DIN_
  6
Continuous
 62
     7
100
AcDbCircle
 10
119.818439118904
 20
125.673388804965
 30
0.0
 40
1.0
100
AcDbArc
 50
270.0
 51
14.62087398862926
  0
ARC
  5
293
330
1F
100
AcDbEntity
  8
Sichtbare_Kanten_TC_020513_DIN_
  6
Continuous
 62
     7
100
AcDbCircle
 10
59.4071111752525
 20
125.673388804965
 30
0.0
 40
0.9999999999999581
100
AcDbArc
 50
165.3791260113678
 51
270.0
  0
ARC
  5
294
330
1F
100
AcDbEntity
  8
Sichtbare_Kanten_TC_020513_DIN_
  6
Continuous
 62
     7
100
AcDbCircle
 10
119.112775147078
 20
124.416812588962
 30
0.0
 40
2.0
100
AcDbArc
 50
0.0
 51
14.62087398862936
  0
ARC
  5
295
330
1F
100
AcDbEntity
  8
Sichtbare_Kanten_TC_020513_DIN_
  6
Continuous
 62
     7
100
AcDbCircle
 10
60.1127751470783
 20
124.416812588962
 30
0.0
 40
2.000000000000109
100
AcDbArc
 50
165.3791260113692
 51
180.0
  0
CIRCLE
  5
296
330
1F
100
AcDbEntity
  8
Sichtbare_Kanten_TC_020513_DIN_
  6
Continuous
 62
     7
100
AcDbCircle
 10
205.398494351997
 20
102.173388804965
 30
0.0
 40
2.700000000001012
  0
CIRCLE
  5
297
330
1F
100
AcDbEntity
  8
Sichtbare_Kanten_TC_020513_DIN_
  6
Continuous
 62
     7
100
AcDbCircle
 10
205.398494351997
 20
102.173388804965
 30
0.0
 40
1.800000000000011
  0
SPLINE
  5
298
330
1F
100
AcDbEntity
  8
Sichtbare_Kanten_TC_020513_DIN_
  6
Continuous
 62
     7
100
AcDbSpline
210
0.0
220
0.0
230
1.0
 70
     8
 71
     3
 72
    21
 73
    17
 74
    15
 42
0.0000000001
 43
0.0000000001
 44
0.00000001
 40
0.0
 40
0.0
 40
0.0
 40
0.0
 40
0.0633248872668863
 40
0.1271512019107575
 40
0.1776667036690201
 40
0.2279429946717232
 40
0.290459287588148
 40
0.3530698335243403
 40
0.426395104772623
 40
0.4996874982699029
 40
0.5818039063448995
 40
0.6639315200515031
 40
0.7525792971158805
 40
0.8412239196302792
 40
1.027816279838489
 40
1.214408909959339
 40
1.214408909959339
 40
1.214408909959339
 40
1.214408909959339
 10
223.398494352001
 20
154.946098437828
 30
0.0
 10
223.3930705014795
 20
154.966818274225
 30
0.0
 10
223.3821798525965
 20
155.0084220135284
 30
0.0
 10
223.341412078444
 20
155.0533124962689
 30
0.0
 10
223.3028493904163
 20
155.0919798621573
 30
0.0
 10
223.2616568811395
 20
155.1277379588919
 30
0.0
 10
223.2156562451802
 20
155.1638205129298
 30
0.0
 10
223.1618138324716
 20
155.2022913477346
 30
0.0
 10
223.1037267554791
 20
155.2409094657067
 30
0.0
 10
223.0389429135271
 20
155.2811329862599
 30
0.0
 10
222.970565386802
 20
155.3210738743235
 30
0.0
 10
222.8967291349217
 20
155.3617608798562
 30
0.0
 10
222.8200774108954
 20
155.4018056003125
 30
0.0
 10
222.711370243354
 20
155.4556201445615
 30
0.0
 10
222.5715148774575
 20
155.5201081094896
 30
0.0
 10
222.4561678882947
 20
155.5667188682492
 30
0.0
 10
222.398494352
 20
155.590024264485
 30
0.0
 11
223.398494352001
 21
154.946098437828
 31
0.0
 11
223.3776873516186
 21
155.0059073843365
 31
0.0
 11
223.3381869727867
 21
155.0560423872102
 31
0.0
 11
223.3023380764698
 21
155.0916327307145
 31
0.0
 11
223.2645197557852
 21
155.1247609672746
 31
0.0
 11
223.2153981273114
 21
155.1634307551728
 31
0.0
 11
223.1645387951195
 21
155.1999466255776
 31
0.0
 11
223.1035121859587
 21
155.2405957138574
 31
0.0
 11
223.0412819616869
 21
155.2793148839368
 31
0.0
 11
222.9704000176051
 21
155.320773953853
 31
0.0
 11
222.8984943520002
 21
155.3604541779838
 31
0.0
 11
222.8199316610902
 21
155.4015191505935
 31
0.0
 11
222.7405144953258
 21
155.4408991313281
 31
0.0
 11
222.5709310152533
 21
155.5187332637803
 31
0.0
 11
222.398494352
 21
155.590024264485
 31
0.0
  0
SPLINE
  5
299
330
1F
100
AcDbEntity
  8
Sichtbare_Kanten_TC_020513_DIN_
  6
Continuous
 62
     7
100
AcDbSpline
210
0.0
220
0.0
230
1.0
 70
     8
 71
     3
 72
    21
 73
    17
 74
    15
 42
0.0000000001
 43
0.0000000001
 44
0.00000001
 40
0.0
 40
0.0
 40
0.0
 40
0.0
 40
0.1865926301203622
 40
0.3731849903286633
 40
0.4618296128428331
 40
0.5504773899070604
 40
0.6326050036135396
 40
0.714721411688526
 40
0.7880138051858541
 40
0.861339076434121
 40
0.9239496223703629
 40
0.9864659152868932
 40
1.036742206289727
 40
1.08725770804807
 40
1.15108402269162
 40
1.214408909957949
 40
1.214408909957949
 40
1.214408909957949
 40
1.214408909957949
 10
188.398494352
 20
155.590024264485
 30
0.0
 10
188.3408208157055
 20
155.5667188682492
 30
0.0
 10
188.2254738265429
 20
155.5201081094894
 30
0.0
 10
188.0856184606467
 20
155.4556201445616
 30
0.0
 10
187.9769112931052
 20
155.4018056003126
 30
0.0
 10
187.9002595690792
 20
155.3617608798562
 30
0.0
 10
187.8264233171989
 20
155.3210738743235
 30
0.0
 10
187.7580457904739
 20
155.2811329862599
 30
0.0
 10
187.6932619485219
 20
155.2409094657067
 30
0.0
 10
187.6351748715294
 20
155.2022913477346
 30
0.0
 10
187.5813324588207
 20
155.1638205129297
 30
0.0
 10
187.5353318228614
 20
155.1277379588917
 30
0.0
 10
187.4941393135847
 20
155.0919798621568
 30
0.0
 10
187.4555766255572
 20
155.0533124962683
 30
0.0
 10
187.4148088514045
 20
155.0084220135283
 30
0.0
 10
187.403918202522
 20
154.9668182742249
 30
0.0
 10
187.398494352001
 20
154.946098437828
 30
0.0
 11
188.398494352
 21
155.590024264485
 31
0.0
 11
188.2260576887472
 21
155.5187332637803
 31
0.0
 11
188.0564742086746
 21
155.4408991313281
 31
0.0
 11
187.9770570429104
 21
155.4015191505935
 31
0.0
 11
187.8984943520006
 21
155.3604541779838
 31
0.0
 11
187.8265886863959
 21
155.320773953853
 31
0.0
 11
187.7557067423141
 21
155.2793148839368
 31
0.0
 11
187.6934765180422
 21
155.2405957138573
 31
0.0
 11
187.6324499088815
 21
155.1999466255776
 31
0.0
 11
187.5815905766896
 21
155.1634307551728
 31
0.0
 11
187.5324689482158
 21
155.1247609672744
 31
0.0
 11
187.4946506275312
 21
155.091632730714
 31
0.0
 11
187.4588017312144
 21
155.0560423872096
 31
0.0
 11
187.4193013523825
 21
155.0059073843362
 31
0.0
 11
187.398494352001
 21
154.946098437828
 31
0.0
  0
SPLINE
  5
29A
330
1F
100
AcDbEntity
  8
Sichtbare_Kanten_TC_020513_DIN_
  6
Continuous
 62
     7
100
AcDbSpline
210
0.0
220
0.0
230
1.0
 70
     8
 71
     3
 72
    21
 73
    17
 74
    15
 42
0.0000000001
 43
0.0000000001
 44
0.00000001
 40
0.0
 40
0.0
 40
0.0
 40
0.0
 40
0.1865926301203142
 40
0.3731849903286648
 40
0.4618296128429109
 40
0.5504773899070746
 40
0.6326050036135538
 40
0.7147214116885259
 40
0.7880138051857908
 40
0.8613390764340814
 40
0.9239496223703068
 40
0.9864659152867092
 40
1.036742206289418
 40
1.08725770804768
 40
1.151084022691454
 40
1.214408909958077
 40
1.214408909958077
 40
1.214408909958077
 40
1.214408909958077
 10
189.398494352
 20
154.590024264485
 30
0.0
 10
189.3408208157055
 20
154.5667188682492
 30
0.0
 10
189.2254738265428
 20
154.5201081094894
 30
0.0
 10
189.0856184606466
 20
154.4556201445615
 30
0.0
 10
188.9769112931052
 20
154.4018056003125
 30
0.0
 10
188.9002595690791
 20
154.3617608798561
 30
0.0
 10
188.826423317199
 20
154.3210738743235
 30
0.0
 10
188.7580457904738
 20
154.2811329862599
 30
0.0
 10
188.6932619485219
 20
154.2409094657067
 30
0.0
 10
188.6351748715294
 20
154.2022913477346
 30
0.0
 10
188.5813324588208
 20
154.1638205129299
 30
0.0
 10
188.5353318228615
 20
154.1277379588919
 30
0.0
 10
188.4941393135846
 20
154.0919798621573
 30
0.0
 10
188.4555766255572
 20
154.0533124962689
 30
0.0
 10
188.4148088514044
 20
154.0084220135286
 30
0.0
 10
188.4039182025221
 20
153.966818274225
 30
0.0
 10
188.398494352001
 20
153.946098437828
 30
0.0
 11
189.398494352
 21
154.590024264485
 31
0.0
 11
189.2260576887472
 21
154.5187332637804
 31
0.0
 11
189.0564742086746
 21
154.4408991313281
 31
0.0
 11
188.9770570429104
 21
154.4015191505935
 31
0.0
 11
188.8984943520006
 21
154.3604541779837
 31
0.0
 11
188.8265886863959
 21
154.320773953853
 31
0.0
 11
188.7557067423141
 21
154.2793148839368
 31
0.0
 11
188.6934765180423
 21
154.2405957138574
 31
0.0
 11
188.6324499088815
 21
154.1999466255777
 31
0.0
 11
188.5815905766896
 21
154.1634307551728
 31
0.0
 11
188.5324689482158
 21
154.1247609672746
 31
0.0
 11
188.4946506275312
 21
154.0916327307145
 31
0.0
 11
188.4588017312144
 21
154.0560423872102
 31
0.0
 11
188.4193013523825
 21
154.0059073843365
 31
0.0
 11
188.398494352001
 21
153.946098437828
 31
0.0
  0
SPLINE
  5
29B
330
1F
100
AcDbEntity
  8
Sichtbare_Kanten_TC_020513_DIN_
  6
Continuous
 62
     7
100
AcDbSpline
210
0.0
220
0.0
230
1.0
 70
     8
 71
     3
 72
    21
 73
    17
 74
    15
 42
0.0000000001
 43
0.0000000001
 44
0.00000001
 40
0.0
 40
0.0
 40
0.0
 40
0.0
 40
0.0633248872669528
 40
0.1271512019110175
 40
0.1776667036692194
 40
0.227942994671714
 40
0.2904592875879825
 40
0.3530698335241617
 40
0.4263951047724051
 40
0.4996874982697332
 40
0.5818039063446909
 40
0.6639315200512945
 40
0.7525792971156982
 40
0.8412239196301479
 40
1.027816279838357
 40
1.214408909959171
 40
1.214408909959171
 40
1.214408909959171
 40
1.214408909959171
 10
222.398494352001
 20
153.946098437828
 30
0.0
 10
222.3930705014795
 20
153.966818274225
 30
0.0
 10
222.3821798525962
 20
154.0084220135286
 30
0.0
 10
222.3414120784433
 20
154.0533124962687
 30
0.0
 10
222.3028493904159
 20
154.0919798621573
 30
0.0
 10
222.2616568811393
 20
154.1277379588919
 30
0.0
 10
222.2156562451802
 20
154.1638205129298
 30
0.0
 10
222.1618138324715
 20
154.2022913477346
 30
0.0
 10
222.1037267554792
 20
154.2409094657067
 30
0.0
 10
222.0389429135271
 20
154.2811329862599
 30
0.0
 10
221.9705653868021
 20
154.3210738743235
 30
0.0
 10
221.8967291349217
 20
154.3617608798561
 30
0.0
 10
221.8200774108954
 20
154.4018056003126
 30
0.0
 10
221.711370243354
 20
154.4556201445615
 30
0.0
 10
221.5715148774575
 20
154.5201081094896
 30
0.0
 10
221.4561678882948
 20
154.5667188682492
 30
0.0
 10
221.398494352
 20
154.590024264485
 30
0.0
 11
222.398494352001
 21
153.946098437828
 31
0.0
 11
222.3776873516184
 21
154.0059073843364
 31
0.0
 11
222.3381869727861
 21
154.0560423872102
 31
0.0
 11
222.3023380764693
 21
154.0916327307145
 31
0.0
 11
222.264519755785
 21
154.1247609672746
 31
0.0
 11
222.2153981273114
 21
154.1634307551728
 31
0.0
 11
222.1645387951195
 21
154.1999466255777
 31
0.0
 11
222.1035121859588
 21
154.2405957138574
 31
0.0
 11
222.0412819616869
 21
154.2793148839368
 31
0.0
 11
221.9704000176051
 21
154.320773953853
 31
0.0
 11
221.8984943520003
 21
154.3604541779837
 31
0.0
 11
221.8199316610903
 21
154.4015191505935
 31
0.0
 11
221.7405144953258
 21
154.4408991313282
 31
0.0
 11
221.5709310152533
 21
154.5187332637804
 31
0.0
 11
221.398494352
 21
154.590024264485
 31
0.0
  0
SPLINE
  5
29C
330
1F
100
AcDbEntity
  8
Sichtbare_Kanten_TC_020513_DIN_
  6
Continuous
 62
     7
100
AcDbSpline
210
0.0
220
0.0
230
1.0
 70
     8
 71
     3
 72
    19
 73
    15
 74
    13
 42
0.0000000001
 43
0.0000000001
 44
0.00000001
 40
0.0
 40
0.0
 40
0.0
 40
0.0
 40
0.1810506950819316
 40
0.3621002838181717
 40
0.4440095701032306
 40
0.5259075130065104
 40
0.5989213985492899
 40
0.6719685751725448
 40
0.7342533252731688
 40
0.7964428324325928
 40
0.8463616052595446
 40
0.8965221793539527
 40
0.9591387498443192
 40
1.021234211052495
 40
1.021234211052495
 40
1.021234211052495
 40
1.021234211052495
 10
189.398494351998
 20
129.761597139739
 30
0.0
 10
189.3420624188614
 20
129.7830070933373
 30
0.0
 10
189.2291988974267
 20
129.8258268697041
 30
0.0
 10
189.0883049897582
 20
129.8713823043764
 30
0.0
 10
188.9778469195286
 20
129.9032300442932
 30
0.0
 10
188.9014537447325
 20
129.9231625023203
 30
0.0
 10
188.827426511821
 20
129.9403522671893
 30
0.0
 10
188.7593080427508
 20
129.9539327678177
 30
0.0
 10
188.6943151218001
 20
129.9646095708942
 30
0.0
 10
188.6365894872577
 20
129.9714317724759
 30
0.0
 10
188.5825108477399
 20
129.975082209838
 30
0.0
 10
188.5285387067135
 20
129.9747821983177
 30
0.0
 10
188.468944855415
 20
129.9715860239629
 30
0.0
 10
188.4326326999488
 20
129.9501300836761
 30
0.0
 10
188.414552487395
 20
129.939446940361
 30
0.0
 11
189.398494351998
 21
129.761597139739
 31
0.0
 11
189.2286888530711
 21
129.8244099308236
 31
0.0
 11
189.0564742086727
 21
129.880276466749
 31
0.0
 11
188.9777500547957
 21
129.902895900342
 31
0.0
 11
188.8984943519983
 21
129.9235309827474
 31
0.0
 11
188.8273566668935
 21
129.939976566957
 31
0.0
 11
188.755706742312
 21
129.9541955092554
 31
0.0
 11
188.6942224954755
 21
129.9641492766852
 31
0.0
 11
188.6324499088794
 21
129.9713383201519
 31
0.0
 11
188.5826295119857
 21
129.9744707208124
 31
0.0
 11
188.5324689482143
 21
129.9744385398022
 31
0.0
 11
188.4703271633067
 21
129.9667422115558
 31
0.0
 11
188.414552487395
 21
129.939446940361
 31
0.0
  0
SPLINE
  5
29D
330
1F
100
AcDbEntity
  8
Sichtbare_Kanten_TC_020513_DIN_
  6
Continuous
 62
     7
100
AcDbSpline
210
0.0
220
0.0
230
1.0
 70
     8
 71
     3
 72
    19
 73
    15
 74
    13
 42
0.0000000001
 43
0.0000000001
 44
0.00000001
 40
0.0
 40
0.0
 40
0.0
 40
0.0
 40
0.0633248865205222
 40
0.1271512015955154
 40
0.1776667073400721
 40
0.2279429952527661
 40
0.2904592761111477
 40
0.3530698307482461
 40
0.4263951308494341
 40
0.4996875068593141
 40
0.5818038816424335
 40
0.6639314877319106
 40
0.8425672614187856
 40
1.021203392893764
 40
1.021203392893764
 40
1.021203392893764
 40
1.021203392893764
 10
223.382436216602
 20
128.939446940361
 30
0.0
 10
223.3639498383355
 20
128.9502628357461
 30
0.0
 10
223.326830700207
 20
128.9719802705513
 30
0.0
 10
223.2662611650319
 20
128.9748954588433
 30
0.0
 10
223.2116512694631
 20
128.9749695037462
 30
0.0
 10
223.1572389784697
 20
128.9711267839457
 30
0.0
 10
223.0991974050974
 20
128.9641135472669
 30
0.0
 10
223.0339221084661
 20
128.9532441487986
 30
0.0
 10
222.9655409435816
 20
128.9394784143963
 30
0.0
 10
222.8912901511917
 20
128.9221100903474
 30
0.0
 10
222.8146956044608
 20
128.9020057694477
 30
0.0
 10
222.7049129757318
 20
128.8701946976402
 30
0.0
 10
222.5655226841943
 20
128.8249942751882
 30
0.0
 10
222.4541704999012
 20
128.7827295323307
 30
0.0
 10
222.398494351998
 20
128.761597139739
 30
0.0
 11
223.382436216602
 21
128.939446940361
 31
0.0
 11
223.3254321341911
 21
128.9670254798678
 31
0.0
 11
223.2620503476465
 21
128.9745452957211
 31
0.0
 11
223.2115351726883
 21
128.974362485503
 31
0.0
 11
223.1613683849961
 21
128.9710460809857
 31
0.0
 11
223.0992905000703
 21
128.9636554399104
 31
0.0
 11
223.037506880886
 21
128.9535131545438
 31
0.0
 11
222.9656112055519
 21
128.9391044244412
 31
0.0
 11
222.8942293044417
 21
128.9224792454927
 31
0.0
 11
222.8147926588512
 21
128.9016725555862
 31
0.0
 11
222.7358890723211
 21
128.8788873034553
 31
0.0
 11
222.5660190078036
 21
128.8236161462253
 31
0.0
 11
222.398494351998
 21
128.761597139739
 31
0.0
  0
SPLINE
  5
29E
330
1F
100
AcDbEntity
  8
Sichtbare_Kanten_TC_020513_DIN_
  6
Continuous
 62
     7
100
AcDbSpline
210
0.0
220
0.0
230
1.0
 70
     8
 71
     3
 72
    19
 73
    15
 74
    13
 42
0.0000000001
 43
0.0000000001
 44
0.00000001
 40
0.0
 40
0.0
 40
0.0
 40
0.0
 40
0.0633248865213153
 40
0.127151201596418
 40
0.177666707340946
 40
0.2279429952536986
 40
0.2904592761120836
 40
0.35306983074921
 40
0.4263951308503144
 40
0.4996875068601326
 40
0.5818038816429913
 40
0.6639314877322694
 40
0.8425672614193607
 40
1.021203392894659
 40
1.021203392894659
 40
1.021203392894659
 40
1.021203392894659
 10
222.382436216603
 20
129.939446940361
 30
0.0
 10
222.3639498383362
 20
129.9502628357462
 30
0.0
 10
222.3268307002073
 20
129.9719802705512
 30
0.0
 10
222.266261165032
 20
129.9748954588432
 30
0.0
 10
222.211651269463
 20
129.9749695037463
 30
0.0
 10
222.1572389784697
 20
129.9711267839457
 30
0.0
 10
222.0991974050975
 20
129.9641135472669
 30
0.0
 10
222.0339221084661
 20
129.9532441487987
 30
0.0
 10
221.9655409435817
 20
129.9394784143963
 30
0.0
 10
221.8912901511918
 20
129.9221100903475
 30
0.0
 10
221.8146956044612
 20
129.9020057694477
 30
0.0
 10
221.7049129757323
 20
129.8701946976401
 30
0.0
 10
221.5655226841946
 20
129.8249942751882
 30
0.0
 10
221.4541704999013
 20
129.7827295323307
 30
0.0
 10
221.398494351998
 20
129.761597139739
 30
0.0
 11
222.382436216603
 21
129.939446940361
 31
0.0
 11
222.3254321341912
 21
129.9670254798678
 31
0.0
 11
222.2620503476465
 21
129.974545295721
 31
0.0
 11
222.2115351726884
 21
129.974362485503
 31
0.0
 11
222.1613683849961
 21
129.9710460809857
 31
0.0
 11
222.0992905000703
 21
129.9636554399104
 31
0.0
 11
222.037506880886
 21
129.9535131545438
 31
0.0
 11
221.9656112055519
 21
129.9391044244412
 31
0.0
 11
221.8942293044418
 21
129.9224792454927
 31
0.0
 11
221.8147926588516
 21
129.9016725555862
 31
0.0
 11
221.7358890723217
 21
129.8788873034553
 31
0.0
 11
221.566019007804
 21
129.8236161462253
 31
0.0
 11
221.398494351998
 21
129.761597139739
 31
0.0
  0
SPLINE
  5
29F
330
1F
100
AcDbEntity
  8
Sichtbare_Kanten_TC_020513_DIN_
  6
Continuous
 62
     7
100
AcDbSpline
210
0.0
220
0.0
230
1.0
 70
     8
 71
     3
 72
    19
 73
    15
 74
    13
 42
0.0000000001
 43
0.0000000001
 44
0.00000001
 40
0.0
 40
0.0
 40
0.0
 40
0.0
 40
0.1810506950818951
 40
0.3621002838181623
 40
0.4440095701032017
 40
0.5259075130064815
 40
0.5989213985492823
 40
0.6719685751725427
 40
0.7342533252731667
 40
0.7964428324326223
 40
0.8463616052595723
 40
0.896522179353952
 40
0.9591387498443467
 40
1.021234211052497
 40
1.021234211052497
 40
1.021234211052497
 40
1.021234211052497
 10
188.398494351998
 20
128.761597139739
 30
0.0
 10
188.3420624188614
 20
128.7830070933373
 30
0.0
 10
188.2291988974267
 20
128.8258268697041
 30
0.0
 10
188.0883049897582
 20
128.8713823043763
 30
0.0
 10
187.9778469195286
 20
128.9032300442931
 30
0.0
 10
187.9014537447325
 20
128.9231625023204
 30
0.0
 10
187.827426511821
 20
128.9403522671892
 30
0.0
 10
187.7593080427509
 20
128.9539327678178
 30
0.0
 10
187.6943151218
 20
128.9646095708941
 30
0.0
 10
187.6365894872577
 20
128.9714317724759
 30
0.0
 10
187.5825108477399
 20
128.975082209838
 30
0.0
 10
187.5285387067134
 20
128.9747821983177
 30
0.0
 10
187.468944855415
 20
128.9715860239629
 30
0.0
 10
187.4326326999489
 20
128.9501300836762
 30
0.0
 10
187.414552487395
 20
128.939446940361
 30
0.0
 11
188.398494351998
 21
128.761597139739
 31
0.0
 11
188.2286888530711
 21
128.8244099308235
 31
0.0
 11
188.0564742086727
 21
128.880276466749
 31
0.0
 11
187.9777500547957
 21
128.902895900342
 31
0.0
 11
187.8984943519983
 21
128.9235309827474
 31
0.0
 11
187.8273566668935
 21
128.9399765669569
 31
0.0
 11
187.755706742312
 21
128.9541955092554
 31
0.0
 11
187.6942224954755
 21
128.9641492766852
 31
0.0
 11
187.6324499088794
 21
128.9713383201519
 31
0.0
 11
187.5826295119857
 21
128.9744707208124
 31
0.0
 11
187.5324689482143
 21
128.9744385398022
 31
0.0
 11
187.4703271633067
 21
128.9667422115558
 31
0.0
 11
187.414552487395
 21
128.939446940361
 31
0.0
  0
SPLINE
  5
2A0
330
1F
100
AcDbEntity
  8
Sichtbare_Kanten_TC_020513_DIN_
  6
Continuous
 62
     7
100
AcDbSpline
210
0.0
220
0.0
230
1.0
 70
     8
 71
     3
 72
     9
 73
     5
 74
     3
 42
0.0000000001
 43
0.0000000001
 44
0.00000001
 40
0.0
 40
0.0
 40
0.0
 40
0.0
 40
0.0907516691862617
 40
0.1811658821587048
 40
0.1811658821587048
 40
0.1811658821587048
 40
0.1811658821587048
 10
60.0746637024376
 20
128.939446940361
 30
0.0
 10
60.10458684716365
 20
128.9347607887284
 30
0.0
 10
60.16432186867745
 20
128.9254059107182
 30
0.0
 10
60.22476966290328
 20
128.924060338087
 30
0.0
 10
60.2549372622091
 20
128.923388804965
 30
0.0
 11
60.0746637024376
 21
128.939446940361
 31
0.0
 11
60.16461199424995
 21
128.9273982781891
 31
0.0
 11
60.2549372622091
 21
128.923388804965
 31
0.0
  0
SPLINE
  5
2A1
330
1F
100
AcDbEntity
  8
Sichtbare_Kanten_TC_020513_DIN_
  6
Continuous
 62
     7
100
AcDbSpline
210
0.0
220
0.0
230
1.0
 70
     8
 71
     3
 72
     9
 73
     5
 74
     3
 42
0.0000000001
 43
0.0000000001
 44
0.00000001
 40
0.0
 40
0.0
 40
0.0
 40
0.0
 40
0.0905073473724567
 40
0.180335525613061
 40
0.180335525613061
 40
0.180335525613061
 40
0.180335525613061
 10
66.7826006446952
 20
153.946098437828
 30
0.0
 10
66.81211029182805
 20
153.9394729258963
 30
0.0
 10
66.87090814505048
 20
153.9262716200205
 30
0.0
 10
66.93113768014629
 20
153.9243473275976
 30
0.0
 10
66.9611390312142
 20
153.923388804965
 30
0.0
 11
66.7826006446952
 21
153.946098437828
 31
0.0
 11
66.87149020759713
 21
153.9290624307988
 31
0.0
 11
66.9611390312142
 21
153.923388804965
 31
0.0
  0
SPLINE
  5
2A2
330
1F
100
AcDbEntity
  8
Sichtbare_Kanten_TC_020513_DIN_
  6
Continuous
 62
     7
100
AcDbSpline
210
0.0
220
0.0
230
1.0
 70
     8
 71
     3
 72
     9
 73
     5
 74
     3
 42
0.0000000001
 43
0.0000000001
 44
0.00000001
 40
0.0
 40
0.0
 40
0.0
 40
0.0
 40
0.0905073473725684
 40
0.1803355256131585
 40
0.1803355256131585
 40
0.1803355256131585
 40
0.1803355256131585
 10
67.0434702099125
 20
154.946098437828
 30
0.0
 10
67.07297985704538
 20
154.9394729258962
 30
0.0
 10
67.13177771026787
 20
154.9262716200205
 30
0.0
 10
67.19200724536371
 20
154.9243473275976
 30
0.0
 10
67.2220085964316
 20
154.923388804965
 30
0.0
 11
67.0434702099125
 21
154.946098437828
 31
0.0
 11
67.13235977281455
 21
154.9290624307988
 31
0.0
 11
67.2220085964316
 21
154.923388804965
 31
0.0
  0
SPLINE
  5
2A3
330
1F
100
AcDbEntity
  8
Sichtbare_Kanten_TC_020513_DIN_
  6
Continuous
 62
     7
100
AcDbSpline
210
0.0
220
0.0
230
1.0
 70
     8
 71
     3
 72
    21
 73
    17
 74
    15
 42
0.0000000001
 43
0.0000000001
 44
0.00000001
 40
0.0
 40
0.0
 40
0.0
 40
0.0
 40
0.0766833945993635
 40
0.1535562404777774
 40
0.2024294315289759
 40
0.2512499336706608
 40
0.3090230781984869
 40
0.3668159123627129
 40
0.4333296010001074
 40
0.4998415459074311
 40
0.5740661376367227
 40
0.6482931702306136
 40
0.728693878642802
 40
0.8090949833212989
 40
0.9806518324713593
 40
1.152210326600589
 40
1.152210326600589
 40
1.152210326600589
 40
1.152210326600589
 10
66.1779843973878
 20
155.590024264485
 30
0.0
 10
66.17509636566147
 20
155.5642420193233
 30
0.0
 10
66.16931316713992
 20
155.5126138322981
 30
0.0
 10
66.19581231995149
 20
155.448228379284
 30
0.0
 10
66.22583397780355
 20
155.3985608558711
 30
0.0
 10
66.25790792635281
 20
155.3576519383975
 30
0.0
 10
66.29545289154689
 20
155.3176783483254
 30
0.0
 10
66.34048208913298
 20
155.2768976953527
 30
0.0
 10
66.39043942015164
 20
155.2374547772629
 30
0.0
 10
66.44720203707001
 20
155.1980175623759
 30
0.0
 10
66.5081450720541
 20
155.1602682305135
 30
0.0
 10
66.57490328551509
 20
155.1233038810865
 30
0.0
 10
66.64506096576906
 20
155.0883754958548
 30
0.0
 10
66.74624969211487
 20
155.0432400717521
 30
0.0
 10
66.87829784915166
 20
154.9927086444346
 30
0.0
 10
66.98841258035321
 20
154.9616352230215
 30
0.0
 10
67.0434702099125
 20
154.946098437828
 30
0.0
 11
66.1779843973878
 21
155.590024264485
 31
0.0
 11
66.17577548823883
 21
155.5133726909353
 31
0.0
 11
66.2014078426249
 21
155.4408991313285
 31
0.0
 11
66.22668237609182
 21
155.3990686787663
 31
0.0
 11
66.2565548008124
 21
155.3604541779839
 31
0.0
 11
66.2959945592012
 21
155.3182375735862
 31
0.0
 11
66.33871499823422
 21
155.2793148839366
 31
0.0
 11
66.390841589007
 21
155.2380003669897
 31
0.0
 11
66.44539203886673
 21
155.1999466255776
 31
0.0
 11
66.50844886925628
 21
155.1607914706347
 31
0.0
 11
66.57334459481149
 21
155.1247609672749
 31
0.0
 11
66.64530002832103
 21
155.0888905128363
 31
0.0
 11
66.7186848924033
 21
155.0560423872102
 31
0.0
 11
66.87908103567584
 21
154.9951750748529
 31
0.0
 11
67.0434702099125
 21
154.946098437828
 31
0.0
  0
SPLINE
  5
2A4
330
1F
100
AcDbEntity
  8
Sichtbare_Kanten_TC_020513_DIN_
  6
Continuous
 62
     7
100
AcDbSpline
210
0.0
220
0.0
230
1.0
 70
     8
 71
     3
 72
     9
 73
     5
 74
     3
 42
0.0000000001
 43
0.0000000001
 44
0.00000001
 40
0.0
 40
0.0
 40
0.0
 40
0.0
 40
0.0905243819366267
 40
0.180347046905985
 40
0.180347046905985
 40
0.180347046905985
 40
0.180347046905985
 10
112.003541697725
 20
154.923388804965
 30
0.0
 10
112.0337798470932
 20
154.9243170055962
 30
0.0
 10
112.0940217490626
 20
154.9261662117349
 30
0.0
 10
112.1528035443837
 20
154.9394716192478
 30
0.0
 10
112.182080084244
 20
154.946098437828
 30
0.0
 11
112.003541697725
 21
154.923388804965
 31
0.0
 11
112.0938882730581
 21
154.9290597881763
 31
0.0
 11
112.182080084244
 21
154.946098437828
 31
0.0
  0
SPLINE
  5
2A5
330
1F
100
AcDbEntity
  8
Sichtbare_Kanten_TC_020513_DIN_
  6
Continuous
 62
     7
100
AcDbSpline
210
0.0
220
0.0
230
1.0
 70
     8
 71
     3
 72
    21
 73
    17
 74
    15
 42
0.0000000001
 43
0.0000000001
 44
0.00000001
 40
0.0
 40
0.0
 40
0.0
 40
0.0
 40
0.1715584941289649
 40
0.3431153432789987
 40
0.4235164479575359
 40
0.5039171563697624
 40
0.5781441889636755
 40
0.6523687806930907
 40
0.7188807256006101
 40
0.7853944142380269
 40
0.8431872484021163
 40
0.9009603929298052
 40
0.9497808950714676
 40
0.9986540861227639
 40
1.07552693200128
 40
1.152210326600613
 40
1.152210326600613
 40
1.152210326600613
 40
1.152210326600613
 10
112.182080084244
 20
154.946098437828
 30
0.0
 10
112.2371377138032
 20
154.9616352230214
 30
0.0
 10
112.3472524450046
 20
154.9927086444347
 30
0.0
 10
112.4793006020414
 20
155.0432400717523
 30
0.0
 10
112.5804893283872
 20
155.0883754958548
 30
0.0
 10
112.6506470086412
 20
155.1233038810865
 30
0.0
 10
112.7174052221023
 20
155.1602682305134
 30
0.0
 10
112.7783482570865
 20
155.1980175623759
 30
0.0
 10
112.835110874005
 20
155.2374547772628
 30
0.0
 10
112.8850682050237
 20
155.2768976953527
 30
0.0
 10
112.9300974026096
 20
155.3176783483255
 30
0.0
 10
112.9676423678036
 20
155.3576519383976
 30
0.0
 10
112.9997163163528
 20
155.3985608558711
 30
0.0
 10
113.029737974205
 20
155.448228379284
 30
0.0
 10
113.0562371270168
 20
155.512613832298
 30
0.0
 10
113.0504539284953
 20
155.5642420193233
 30
0.0
 10
113.047565896769
 20
155.590024264485
 30
0.0
 11
112.182080084244
 21
154.946098437828
 31
0.0
 11
112.3464692584804
 21
154.995175074853
 31
0.0
 11
112.5068654017529
 21
155.0560423872102
 31
0.0
 11
112.5802502658352
 21
155.0888905128363
 31
0.0
 11
112.6522056993448
 21
155.1247609672749
 31
0.0
 11
112.7171014249001
 21
155.1607914706346
 31
0.0
 11
112.7801582552897
 21
155.1999466255776
 31
0.0
 11
112.8347087051497
 21
155.2380003669897
 31
0.0
 11
112.8868352959225
 21
155.2793148839366
 31
0.0
 11
112.9295557349553
 21
155.3182375735863
 31
0.0
 11
112.968995493344
 21
155.3604541779839
 31
0.0
 11
112.9988679180645
 21
155.3990686787663
 31
0.0
 11
113.0241424515316
 21
155.4408991313285
 31
0.0
 11
113.0497748059179
 21
155.5133726909353
 31
0.0
 11
113.047565896769
 21
155.590024264485
 31
0.0
  0
SPLINE
  5
2A6
330
1F
100
AcDbEntity
  8
Sichtbare_Kanten_TC_020513_DIN_
  6
Continuous
 62
     7
100
AcDbSpline
210
0.0
220
0.0
230
1.0
 70
     8
 71
     3
 72
     9
 73
     5
 74
     3
 42
0.0000000001
 43
0.0000000001
 44
0.00000001
 40
0.0
 40
0.0
 40
0.0
 40
0.0
 40
0.0905243819365894
 40
0.1803470469060178
 40
0.1803470469060178
 40
0.1803470469060178
 40
0.1803470469060178
 10
112.264411262942
 20
153.923388804965
 30
0.0
 10
112.2946494123102
 20
153.924317005596
 30
0.0
 10
112.3548913142797
 20
153.9261662117343
 30
0.0
 10
112.4136731096007
 20
153.9394716192476
 30
0.0
 10
112.442949649461
 20
153.946098437828
 30
0.0
 11
112.264411262942
 21
153.923388804965
 31
0.0
 11
112.3547578382751
 21
153.929059788176
 31
0.0
 11
112.442949649461
 21
153.946098437828
 31
0.0
  0
SPLINE
  5
2A7
330
1F
100
AcDbEntity
  8
Sichtbare_Kanten_TC_020513_DIN_
  6
Continuous
 62
     7
100
AcDbSpline
210
0.0
220
0.0
230
1.0
 70
     8
 71
     3
 72
    21
 73
    17
 74
    15
 42
0.0000000001
 43
0.0000000001
 44
0.00000001
 40
0.0
 40
0.0
 40
0.0
 40
0.0
 40
0.17155849412927
 40
0.3431153432794898
 40
0.4235164479578454
 40
0.5039171563699065
 40
0.578144188963734
 40
0.6523687806931492
 40
0.7188807256006361
 40
0.7853944142382376
 40
0.8431872484025477
 40
0.900960392930353
 40
0.9497808950719198
 40
0.9986540861230374
 40
1.075526932001473
 40
1.152210326600834
 40
1.152210326600834
 40
1.152210326600834
 40
1.152210326600834
 10
112.442949649461
 20
153.946098437828
 30
0.0
 10
112.4980072790203
 20
153.9616352230215
 30
0.0
 10
112.6081220102219
 20
153.9927086444347
 30
0.0
 10
112.7401701672587
 20
154.0432400717521
 30
0.0
 10
112.8413588936045
 20
154.0883754958548
 30
0.0
 10
112.9115165738583
 20
154.1233038810865
 30
0.0
 10
112.9782747873193
 20
154.1602682305135
 30
0.0
 10
113.0392178223035
 20
154.1980175623759
 30
0.0
 10
113.0959804392221
 20
154.2374547772629
 30
0.0
 10
113.1459377702409
 20
154.2768976953527
 30
0.0
 10
113.1909669678271
 20
154.3176783483254
 30
0.0
 10
113.2285119330212
 20
154.3576519383975
 30
0.0
 10
113.2605858815703
 20
154.3985608558711
 30
0.0
 10
113.2906075394222
 20
154.4482283792841
 30
0.0
 10
113.3171066922338
 20
154.512613832298
 30
0.0
 10
113.3113234937123
 20
154.5642420193233
 30
0.0
 10
113.308435461986
 20
154.590024264485
 30
0.0
 11
112.442949649461
 21
153.946098437828
 31
0.0
 11
112.6073388236977
 21
153.9951750748529
 31
0.0
 11
112.7677349669704
 21
154.0560423872102
 31
0.0
 11
112.8411198310525
 21
154.0888905128363
 31
0.0
 11
112.9130752645619
 21
154.1247609672749
 31
0.0
 11
112.9779709901171
 21
154.1607914706347
 31
0.0
 11
113.0410278205068
 21
154.1999466255776
 31
0.0
 11
113.0955782703667
 21
154.2380003669897
 31
0.0
 11
113.1477048611397
 21
154.2793148839366
 31
0.0
 11
113.1904253001728
 21
154.3182375735863
 31
0.0
 11
113.2298650585616
 21
154.3604541779839
 31
0.0
 11
113.2597374832821
 21
154.3990686787663
 31
0.0
 11
113.2850120167488
 21
154.4408991313285
 31
0.0
 11
113.3106443711349
 21
154.5133726909353
 31
0.0
 11
113.308435461986
 21
154.590024264485
 31
0.0
  0
SPLINE
  5
2A8
330
1F
100
AcDbEntity
  8
Sichtbare_Kanten_TC_020513_DIN_
  6
Continuous
 62
     7
100
AcDbSpline
210
0.0
220
0.0
230
1.0
 70
     8
 71
     3
 72
     9
 73
     5
 74
     3
 42
0.0000000001
 43
0.0000000001
 44
0.00000001
 40
0.0
 40
0.0
 40
0.0
 40
0.0
 40
0.0907758356629709
 40
0.1811822546224263
 40
0.1811822546224263
 40
0.1811822546224263
 40
0.1811822546224263
 10
118.70974346673
 20
129.923388804965
 30
0.0
 10
118.740037134019
 20
129.9239756376174
 30
0.0
 10
118.800501187036
 20
129.9251469147781
 30
0.0
 10
118.8602190000242
 20
129.9346867488297
 30
0.0
 10
118.890017026501
 20
129.939446940361
 30
0.0
 11
118.70974346673
 21
129.923388804965
 31
0.0
 11
118.800437147051
 21
129.9272499822649
 31
0.0
 11
118.890017026501
 21
129.939446940361
 31
0.0
  0
SPLINE
  5
2A9
330
1F
100
AcDbEntity
  8
Sichtbare_Kanten_TC_020513_DIN_
  6
Continuous
 62
     7
100
AcDbSpline
210
0.0
220
0.0
230
1.0
 70
     8
 71
     3
 72
     9
 73
     5
 74
     3
 42
0.0000000001
 43
0.0000000001
 44
0.00000001
 40
0.0
 40
0.0
 40
0.0
 40
0.0
 40
0.0907516691860856
 40
0.1811658821586068
 40
0.1811658821586068
 40
0.1811658821586068
 40
0.1811658821586068
 10
60.335533267655
 20
129.939446940361
 30
0.0
 10
60.36545641238099
 20
129.9347607887284
 30
0.0
 10
60.42519143389477
 20
129.9254059107182
 30
0.0
 10
60.48563922812056
 20
129.924060338087
 30
0.0
 10
60.5158068274264
 20
129.923388804965
 30
0.0
 11
60.335533267655
 21
129.939446940361
 31
0.0
 11
60.42548155946718
 21
129.9273982781891
 31
0.0
 11
60.5158068274264
 21
129.923388804965
 31
0.0
  0
SPLINE
  5
2AA
330
1F
100
AcDbEntity
  8
Sichtbare_Kanten_TC_020513_DIN_
  6
Continuous
 62
     7
100
AcDbSpline
210
0.0
220
0.0
230
1.0
 70
     8
 71
     3
 72
    21
 73
    17
 74
    15
 42
0.0000000001
 43
0.0000000001
 44
0.00000001
 40
0.0
 40
0.0
 40
0.0
 40
0.0
 40
0.0766833945993648
 40
0.1535562404777597
 40
0.2024294315290142
 40
0.2512499336706316
 40
0.309023078198448
 40
0.3668159123626635
 40
0.4333296010000692
 40
0.4998415459073929
 40
0.5740661376366994
 40
0.6482931702305904
 40
0.7286938786427533
 40
0.8090949833212372
 40
0.980651832471364
 40
1.152210326600757
 40
1.152210326600757
 40
1.152210326600757
 40
1.152210326600757
 10
65.9171148321704
 20
154.590024264485
 30
0.0
 10
65.91422680044406
 20
154.5642420193233
 30
0.0
 10
65.90844360192244
 20
154.512613832298
 30
0.0
 10
65.93494275473404
 20
154.448228379284
 30
0.0
 10
65.964964412586
 20
154.3985608558711
 30
0.0
 10
65.99703836113534
 20
154.3576519383975
 30
0.0
 10
66.0345833263294
 20
154.3176783483254
 30
0.0
 10
66.07961252391544
 20
154.2768976953527
 30
0.0
 10
66.12956985493412
 20
154.2374547772629
 30
0.0
 10
66.18633247185251
 20
154.1980175623759
 30
0.0
 10
66.2472755068366
 20
154.1602682305135
 30
0.0
 10
66.31403372029757
 20
154.1233038810865
 30
0.0
 10
66.38419140055156
 20
154.0883754958548
 30
0.0
 10
66.48538012689734
 20
154.0432400717521
 30
0.0
 10
66.61742828393423
 20
153.9927086444346
 30
0.0
 10
66.72754301513586
 20
153.9616352230214
 30
0.0
 10
66.7826006446952
 20
153.946098437828
 30
0.0
 11
65.9171148321704
 21
154.590024264485
 31
0.0
 11
65.91490592302138
 21
154.5133726909353
 31
0.0
 11
65.9405382774074
 21
154.4408991313285
 31
0.0
 11
65.96581281087433
 21
154.3990686787663
 31
0.0
 11
65.9956852355949
 21
154.3604541779839
 31
0.0
 11
66.0351249939837
 21
154.3182375735863
 31
0.0
 11
66.0778454330167
 21
154.2793148839366
 31
0.0
 11
66.12997202378949
 21
154.2380003669897
 31
0.0
 11
66.18452247364922
 21
154.1999466255776
 31
0.0
 11
66.24757930403878
 21
154.1607914706347
 31
0.0
 11
66.31247502959398
 21
154.1247609672749
 31
0.0
 11
66.3844304631035
 21
154.0888905128363
 31
0.0
 11
66.45781532718576
 21
154.0560423872102
 31
0.0
 11
66.61821147045836
 21
153.9951750748529
 31
0.0
 11
66.7826006446952
 21
153.946098437828
 31
0.0
  0
SPLINE
  5
2AB
330
1F
100
AcDbEntity
  8
Sichtbare_Kanten_TC_020513_DIN_
  6
Continuous
 62
     7
100
AcDbSpline
210
0.0
220
0.0
230
1.0
 70
     8
 71
     3
 72
    19
 73
    15
 74
    13
 42
0.0000000001
 43
0.0000000001
 44
0.00000001
 40
0.0
 40
0.0
 40
0.0
 40
0.0
 40
0.0766833936758312
 40
0.1535562401590015
 40
0.202429441177622
 40
0.2512499366292466
 40
0.3090230622926
 40
0.3668159040140127
 40
0.4333295827353569
 40
0.4998415775091296
 40
0.5740665441212482
 40
0.6482930620335752
 40
0.8109297821413375
 40
0.9735678338363931
 40
0.9735678338363931
 40
0.9735678338363931
 40
0.9735678338363931
 10
119.78541645105
 20
129.761597139739
 30
0.0
 10
119.7753419383165
 20
129.7855046515268
 30
0.0
 10
119.755168022914
 20
129.8333787406316
 30
0.0
 10
119.7005937320774
 20
129.8766145865675
 30
0.0
 10
119.6501355034549
 20
129.9052873994346
 30
0.0
 10
119.6021650268076
 20
129.9253151446731
 30
0.0
 10
119.5498775610863
 20
129.9418540374362
 30
0.0
 10
119.4906655045149
 20
129.9554412010294
 30
0.0
 10
119.4278067169715
 20
129.9654554616479
 30
0.0
 10
119.359013062909
 20
129.9721359650959
 30
0.0
 10
119.2873930205736
 20
129.9753104684567
 30
0.0
 10
119.1836789382242
 20
129.974770366753
 30
0.0
 10
119.050578892147
 20
129.9657413417611
 30
0.0
 10
118.9435377944488
 20
129.9482117647482
 30
0.0
 10
118.890017026501
 20
129.939446940361
 30
0.0
 11
119.78541645105
 21
129.761597139739
 31
0.0
 11
119.7498999161759
 21
129.8295597663523
 31
0.0
 11
119.6921309727262
 21
129.8802764667491
 31
0.0
 11
119.6496432789521
 21
129.9044298444748
 31
0.0
 11
119.6047145877535
 21
129.9235309827476
 31
0.0
 11
119.5496781318509
 21
129.9411014856032
 31
0.0
 11
119.4933881762741
 21
129.9541955092554
 31
0.0
 11
119.4277224213353
 21
129.9647822030435
 31
0.0
 11
119.3615343349659
 21
129.9713383201516
 31
0.0
 11
119.2873854406723
 21
129.9746979545967
 31
0.0
 11
119.2131593760766
 21
129.974438539802
 31
0.0
 11
119.0509116414615
 21
129.9631968611159
 31
0.0
 11
118.890017026501
 21
129.939446940361
 31
0.0
  0
SPLINE
  5
2AC
330
1F
100
AcDbEntity
  8
Sichtbare_Kanten_TC_020513_DIN_
  6
Continuous
 62
     7
100
AcDbSpline
210
0.0
220
0.0
230
1.0
 70
     8
 71
     3
 72
    19
 73
    15
 74
    13
 42
0.0000000001
 43
0.0000000001
 44
0.00000001
 40
0.0
 40
0.0
 40
0.0
 40
0.0
 40
0.1648213723823727
 40
0.3296395633217146
 40
0.4036677236914144
 40
0.4776945372537696
 40
0.5439717135552737
 40
0.6102501362364403
 40
0.667788731464406
 40
0.7253086626367551
 40
0.7738869718418013
 40
0.8225149870421249
 40
0.8981636383589242
 40
0.9735962365468669
 40
0.9735962365468669
 40
0.9735962365468669
 40
0.9735962365468669
 10
60.0746637024376
 20
128.939446940361
 30
0.0
 10
60.02042155021999
 20
128.9483148556655
 30
0.0
 10
59.91193829278686
 20
128.9660505151026
 30
0.0
 10
59.77742677545321
 20
128.9749526948458
 30
0.0
 10
59.67311648429702
 20
128.975223927908
 30
0.0
 10
59.60171570619146
 20
128.971854129527
 30
0.0
 10
59.53316501423654
 20
128.9649767323337
 30
0.0
 10
59.47058063589242
 20
128.9547734447393
 30
0.0
 10
59.41166622767476
 20
128.9409963233504
 30
0.0
 10
59.35969637083092
 20
128.9242791021741
 30
0.0
 10
59.31206875940056
 20
128.9040742076106
 30
0.0
 10
59.26229427804304
 20
128.8753345868402
 30
0.0
 10
59.2088362189441
 20
128.8322655754517
 30
0.0
 10
59.18911218948443
 20
128.7851308166863
 30
0.0
 10
59.1792642778888
 20
128.761597139739
 30
0.0
 11
60.0746637024376
 21
128.939446940361
 31
0.0
 11
59.91159715242562
 21
128.9634341257149
 31
0.0
 11
59.7471539161232
 21
128.974545295721
 31
0.0
 11
59.67312578393344
 21
128.9746098884252
 31
0.0
 11
59.59918480474917
 21
128.9710460809856
 31
0.0
 11
59.53325171761788
 21
128.9643012963457
 31
0.0
 11
59.46785718184032
 21
128.9535131545437
 31
0.0
 11
59.41187011320697
 21
128.9402414520661
 31
0.0
 11
59.35716137076383
 21
128.9224792454926
 31
0.0
 11
59.31256627815668
 21
128.9032145150096
 31
0.0
 11
59.2704608077244
 21
128.8788873034555
 31
0.0
 11
59.21397253766158
 21
128.82857037001
 31
0.0
 11
59.1792642778888
 21
128.761597139739
 31
0.0
  0
SPLINE
  5
2AD
330
1F
100
AcDbEntity
  8
Sichtbare_Kanten_TC_020513_DIN_
  6
Continuous
 62
     7
100
AcDbSpline
210
0.0
220
0.0
230
1.0
 70
     8
 71
     3
 72
    19
 73
    15
 74
    13
 42
0.0000000001
 43
0.0000000001
 44
0.00000001
 40
0.0
 40
0.0
 40
0.0
 40
0.0
 40
0.1648213723823656
 40
0.3296395633217128
 40
0.4036677236914126
 40
0.4776945372537466
 40
0.5439717135552194
 40
0.6102501362363766
 40
0.6677887314643565
 40
0.7253086626367238
 40
0.7738869718417766
 40
0.8225149870421347
 40
0.8981636383589151
 40
0.9735962365468578
 40
0.9735962365468578
 40
0.9735962365468578
 40
0.9735962365468578
 10
60.335533267655
 20
129.939446940361
 30
0.0
 10
60.28129111543741
 20
129.9483148556655
 30
0.0
 10
60.17280785800428
 20
129.9660505151026
 30
0.0
 10
60.03829634067061
 20
129.9749526948458
 30
0.0
 10
59.93398604951443
 20
129.975223927908
 30
0.0
 10
59.86258527140893
 20
129.971854129527
 30
0.0
 10
59.79403457945395
 20
129.9649767323336
 30
0.0
 10
59.73145020110992
 20
129.9547734447392
 30
0.0
 10
59.67253579289221
 20
129.9409963233504
 30
0.0
 10
59.62056593604835
 20
129.9242791021741
 30
0.0
 10
59.57293832461794
 20
129.9040742076106
 30
0.0
 10
59.52316384326048
 20
129.8753345868402
 30
0.0
 10
59.46970578416149
 20
129.8322655754517
 30
0.0
 10
59.44998175470182
 20
129.7851308166863
 30
0.0
 10
59.4401338431062
 20
129.761597139739
 30
0.0
 11
60.335533267655
 21
129.939446940361
 31
0.0
 11
60.17246671764303
 21
129.9634341257149
 31
0.0
 11
60.00802348134061
 21
129.9745452957209
 31
0.0
 11
59.93399534915085
 21
129.9746098884252
 31
0.0
 11
59.8600543699666
 21
129.9710460809855
 31
0.0
 11
59.79412128283533
 21
129.9643012963457
 31
0.0
 11
59.72872674705778
 21
129.9535131545437
 31
0.0
 11
59.67273967842442
 21
129.9402414520661
 31
0.0
 11
59.61803093598125
 21
129.9224792454926
 31
0.0
 11
59.57343584337409
 21
129.9032145150096
 31
0.0
 11
59.5313303729418
 21
129.8788873034555
 31
0.0
 11
59.47484210287898
 21
129.82857037001
 31
0.0
 11
59.4401338431062
 21
129.761597139739
 31
0.0
  0
SPLINE
  5
2AE
330
1F
100
AcDbEntity
  8
Sichtbare_Kanten_TC_020513_DIN_
  6
Continuous
 62
     7
100
AcDbSpline
210
0.0
220
0.0
230
1.0
 70
     8
 71
     3
 72
     9
 73
     5
 74
     3
 42
0.0000000001
 43
0.0000000001
 44
0.00000001
 40
0.0
 40
0.0
 40
0.0
 40
0.0
 40
0.090775835663837
 40
0.1811822546234331
 40
0.1811822546234331
 40
0.1811822546234331
 40
0.1811822546234331
 10
118.970613031947
 20
128.923388804965
 30
0.0
 10
119.0009066992363
 20
128.9239756376174
 30
0.0
 10
119.0613707522537
 20
128.925146914778
 30
0.0
 10
119.1210885652422
 20
128.9346867488297
 30
0.0
 10
119.150886591719
 20
128.939446940361
 30
0.0
 11
118.970613031947
 21
128.923388804965
 31
0.0
 11
119.0613067122689
 21
128.9272499822649
 31
0.0
 11
119.150886591719
 21
128.939446940361
 31
0.0
  0
SPLINE
  5
2AF
330
1F
100
AcDbEntity
  8
Sichtbare_Kanten_TC_020513_DIN_
  6
Continuous
 62
     7
100
AcDbSpline
210
0.0
220
0.0
230
1.0
 70
     8
 71
     3
 72
    19
 73
    15
 74
    13
 42
0.0000000001
 43
0.0000000001
 44
0.00000001
 40
0.0
 40
0.0
 40
0.0
 40
0.0
 40
0.0766833936762195
 40
0.1535562401593151
 40
0.2024294411777008
 40
0.2512499366291684
 40
0.309023062292693
 40
0.3668159040142792
 40
0.4333295827354832
 40
0.4998415775089419
 40
0.5740665441209625
 40
0.6482930620333179
 40
0.8109297821414895
 40
0.9735678338360109
 40
0.9735678338360109
 40
0.9735678338360109
 40
0.9735678338360109
 10
120.046286016268
 20
128.761597139739
 30
0.0
 10
120.0362115035342
 20
128.7855046515268
 30
0.0
 10
120.0160375881311
 20
128.8333787406315
 30
0.0
 10
119.9614632972946
 20
128.8766145865674
 30
0.0
 10
119.9110050686724
 20
128.9052873994346
 30
0.0
 10
119.8630345920252
 20
128.9253151446731
 30
0.0
 10
119.8107471263038
 20
128.9418540374363
 30
0.0
 10
119.7515350697324
 20
128.9554412010293
 30
0.0
 10
119.688676282189
 20
128.9654554616479
 30
0.0
 10
119.6198826281267
 20
128.9721359650958
 30
0.0
 10
119.5482625857915
 20
128.9753104684568
 30
0.0
 10
119.4445485034419
 20
128.974770366753
 30
0.0
 10
119.3114484573647
 20
128.9657413417611
 30
0.0
 10
119.2044073596666
 20
128.9482117647482
 30
0.0
 10
119.150886591719
 20
128.939446940361
 30
0.0
 11
120.046286016268
 21
128.761597139739
 31
0.0
 11
120.0107694813931
 21
128.8295597663523
 31
0.0
 11
119.9530005379435
 21
128.8802764667491
 31
0.0
 11
119.9105128441697
 21
128.9044298444748
 31
0.0
 11
119.8655841529712
 21
128.9235309827476
 31
0.0
 11
119.8105476970684
 21
128.9411014856032
 31
0.0
 11
119.7542577414915
 21
128.9541955092554
 31
0.0
 11
119.6885919865528
 21
128.9647822030435
 31
0.0
 11
119.6224039001837
 21
128.9713383201516
 31
0.0
 11
119.5482550058902
 21
128.9746979545967
 31
0.0
 11
119.4740289412945
 21
128.9744385398019
 31
0.0
 11
119.311781206679
 21
128.9631968611159
 31
0.0
 11
119.150886591719
 21
128.939446940361
 31
0.0
  0
LWPOLYLINE
  5
2B0
330
1F
100
AcDbEntity
  8
Sichtbare_Kanten_TC_020513_DIN_
  6
Continuous
 62
     7
100
AcDbPolyline
 90
       25
 70
     0
 43
0.0
 10
219.044573653832
 20
124.673388804965
 10
219.000765432015
 20
124.674516524844
 10
218.955668557778
 20
124.677866305881
 10
218.909391511575
 20
124.683385695987
 10
218.862042773858
 20
124.691022243075
 10
218.813730825082
 20
124.700725879245
 10
218.764561761514
 20
124.712441768222
 10
218.7146452557
 20
124.726119842105
 10
218.664087403909
 20
124.741710032992
 10
218.612997878686
 20
124.759157504611
 10
218.561485160485
 20
124.778409804873
 10
218.509663690225
 20
124.799378718905
 10
218.457683671609
 20
124.821968879275
 10
218.405700076714
 20
124.846106376224
 10
218.353866685525
 20
124.871710147433
 10
218.302337278023
 20
124.898706283145
 10
218.25126801838
 20
124.927013721042
 10
218.200811494485
 20
124.956556167178
 10
218.1511250626
 20
124.987259711795
 10
218.102360118523
 20
125.019043292575
 10
218.054569114342
 20
125.051906909518
 10
218.006623138085
 20
125.086782779269
 10
217.958610404626
 20
125.123909320407
 10
217.911093581811
 20
125.163210238986
 10
217.864631761208
 20
125.204606856875
  0
LWPOLYLINE
  5
2B1
330
1F
100
AcDbEntity
  8
Sichtbare_Kanten_TC_020513_DIN_
  6
Continuous
 62
     7
100
AcDbPolyline
 90
       25
 70
     0
 43
0.0
 10
192.932356942788
 20
125.204606856875
 10
192.885895122185
 20
125.163210238986
 10
192.838378299371
 20
125.123909320407
 10
192.790365565911
 20
125.086782779269
 10
192.742419589654
 20
125.051906909518
 10
192.694628585473
 20
125.019043292575
 10
192.645863641396
 20
124.987259711795
 10
192.596177209512
 20
124.956556167178
 10
192.545720685616
 20
124.927013721042
 10
192.494651425973
 20
124.898706283145
 10
192.443122018472
 20
124.871710147433
 10
192.391288627282
 20
124.846106376224
 10
192.339305032388
 20
124.821968879275
 10
192.287325013772
 20
124.799378718905
 10
192.235503543511
 20
124.778409804873
 10
192.183990825311
 20
124.759157504611
 10
192.132901300088
 20
124.741710032992
 10
192.082343448296
 20
124.726119842105
 10
192.032426942483
 20
124.712441768222
 10
191.983257878915
 20
124.700725879245
 10
191.934945930139
 20
124.691022243075
 10
191.887597192422
 20
124.683385695987
 10
191.841320146218
 20
124.677866305881
 10
191.796223271981
 20
124.674516524844
 10
191.752415050164
 20
124.673388804965
  0
LWPOLYLINE
  5
2B2
330
1F
100
AcDbEntity
  8
Sichtbare_Kanten_TC_020513_DIN_
  6
Continuous
 62
     7
100
AcDbPolyline
 90
       25
 70
     0
 43
0.0
 10
192.932356942788
 20
125.204606856875
 10
192.963328708306
 20
125.233410205417
 10
192.994466174737
 20
125.262518729739
 10
193.025756229058
 20
125.29189428287
 10
193.057191718712
 20
125.321510638766
 10
193.0887726437
 20
125.351341571383
 10
193.120491851464
 20
125.381363238864
 10
193.152348149911
 20
125.41155179935
 10
193.184335578576
 20
125.441878642611
 10
193.216451753274
 20
125.472322310977
 10
193.248693097725
 20
125.502856578402
 10
193.281053651467
 20
125.53345760303
 10
193.313531030312
 20
125.564096774631
 10
193.346110929146
 20
125.59474786716
 10
193.378776658669
 20
125.625375117831
 10
193.411523450509
 20
125.655961837344
 10
193.444345344201
 20
125.686484183841
 10
193.477239955559
 20
125.716920699649
 10
193.510200132027
 20
125.747252311282
 10
193.543218721047
 20
125.777457561069
 10
193.576288570061
 20
125.807507838778
 10
193.609402526513
 20
125.837388839297
 10
193.642554629937
 20
125.867079104953
 10
193.675740111962
 20
125.896559562259
 10
193.708951820031
 20
125.925811137729
  0
LWPOLYLINE
  5
2B3
330
1F
100
AcDbEntity
  8
Sichtbare_Kanten_TC_020513_DIN_
  6
Continuous
 62
     7
100
AcDbPolyline
 90
       25
 70
     0
 43
0.0
 10
217.088036883965
 20
125.925811137729
 10
217.12126766552
 20
125.896540488772
 10
217.154466260567
 20
125.867045726352
 10
217.187626708642
 20
125.837341155581
 10
217.220744241372
 20
125.807453002505
 10
217.253812898293
 20
125.777395572238
 10
217.286826718941
 20
125.747195090823
 10
217.319783319131
 20
125.716865863376
 10
217.352674354211
 20
125.686434115939
 10
217.385496247902
 20
125.655918922
 10
217.418243039742
 20
125.625336970859
 10
217.450909961358
 20
125.594712104373
 10
217.483491052285
 20
125.564063396029
 10
217.515980352059
 20
125.533414687686
 10
217.54835282673
 20
125.502804126315
 10
217.580601323739
 20
125.472262706332
 10
217.612722266808
 20
125.441811885409
 10
217.644710887566
 20
125.411480273776
 10
217.676563609734
 20
125.38129171329
 10
217.708278049126
 20
125.351274814181
 10
217.739849437371
 20
125.321451034121
 10
217.771274198189
 20
125.291846599154
 10
217.802548755303
 20
125.262487735324
 10
217.833669532433
 20
125.233398284488
 10
217.864631761208
 20
125.204606856875
  0
TEXT
  5
2B5
330
1F
100
AcDbEntity
  8
Symbole_ISO_
 62
     7
100
AcDbText
 10
138.0
 20
19.2499999701976
 30
0.0
 40
4.00000005960464
  1
CZAOT 15.4 L
 41
0.89999994635582
  7
CONVERTER_13
100
AcDbText
  0
TEXT
  5
2B6
330
1F
100
AcDbEntity
  8
Symbole_ISO_
 62
     7
100
AcDbText
 10
251.305457141674
 20
12.5
 30
0.0
 40
5.0
  1
1:1
 41
0.67499998211861
  7
CONVERTER_12
100
AcDbText
  0
TEXT
  5
2B7
330
1F
100
AcDbEntity
  8
Symbole_ISO_
 62
     7
100
AcDbText
 10
138.0
 20
11.7499999701976
 30
0.0
 40
4.00000005960464
  1
hood side entry NPT 1/2"
 41
0.89999994635582
  7
CONVERTER_13
100
AcDbText
  0
DIMENSION
  5
2C3
330
1F
100
AcDbEntity
  8
Bemaßungen_TC_020513_DIN_
100
AcDbDimension
  2
*D3
 10
136.0211805745368
 20
156.8524733384162
 30
0.0
 11
142.7686972261451
 21
148.5983486510328
 31
0.0
 70
    32
  1
NPT 1/2"
 71
     5
 42
-1.0
 53
284.6208739886318
  3
ME10_DIM_10
100
AcDbAlignedDimension
 13
133.090910197667
 23
134.219904623064
 33
0.0
 14
127.749662854036
 24
154.694686106982
 34
0.0
 50
284.6208739886318
100
AcDbRotatedDimension
  0
DIMENSION
  5
2CE
330
1F
100
AcDbEntity
  8
Bemaßungen_TC_020513_DIN_
100
AcDbDimension
  2
*D4
 10
238.1034943519981
 20
159.1733888049649
 30
0.0
 11
233.096809495245
 21
128.095005448894
 31
0.0
 70
    32
  1
64,5
 71
     5
 42
-1.0
 53
90.0
  3
ME10_DIM_11
100
AcDbAlignedDimension
 13
216.103494351998
 23
94.673388804965
 33
0.0
 14
205.398494352001
 24
159.173388804965
 34
0.0
 50
90.0
100
AcDbRotatedDimension
  0
DIMENSION
  5
2D9
330
1F
100
AcDbEntity
  8
Bemaßungen_TC_020513_DIN_
100
AcDbDimension
  2
*D5
 10
187.3984943519987
 20
66.09232369528907
 30
0.0
 11
205.764060518438
 21
70.4687220581813
 31
0.0
 70
    32
  1
36
 71
     5
 42
-1.0
 53
0.00013888888889
  3
ME10_DIM_12
100
AcDbAlignedDimension
 13
223.398494351998
 23
127.298388804965
 33
0.0
 14
187.398494351998
 24
127.298388804965
 34
0.0
100
AcDbRotatedDimension
  0
DIMENSION
  5
2E4
330
1F
100
AcDbEntity
  8
Bemaßungen_TC_020513_DIN_
100
AcDbDimension
  2
*D6
 10
190.6934943519989
 20
75.51326636234243
 30
0.0
 11
206.570110995928
 21
80.5199512190955
 31
0.0
 70
    32
  1
29,4
 71
     5
 42
-1.0
 53
0.00013888888889
  3
ME10_DIM_13
100
AcDbAlignedDimension
 13
220.103494351999
 23
96.173388804965
 33
0.0
 14
190.693494351999
 24
96.173388804965
 34
0.0
100
AcDbRotatedDimension
  0
DIMENSION
  5
2EF
330
1F
100
AcDbEntity
  8
Bemaßungen_TC_020513_DIN_
100
AcDbDimension
  2
*D7
 10
58.1077751470782
 20
75.51326636234246
 30
0.0
 11
89.9664040693156
 21
79.8896647252347
 31
0.0
 70
    32
  1
63
 71
     5
 42
-1.0
 53
0.00013888888889
  3
ME10_DIM_14
100
AcDbAlignedDimension
 13
121.117775147078
 23
96.173388804965
 33
0.0
 14
58.1077751470782
 24
96.173388804965
 34
0.0
100
AcDbRotatedDimension
  0
DIMENSION
  5
2FA
330
1F
100
AcDbEntity
  8
Bemaßungen_TC_020513_DIN_
100
AcDbDimension
  2
*D8
 10
53.6127751470782
 20
66.09232369528911
 30
0.0
 11
90.0081844240223
 21
70.4066483883314
 31
0.0
 70
    32
  1
72
 71
     5
 42
-1.0
 53
0.00013888888889
  3
ME10_DIM_15
100
AcDbAlignedDimension
 13
125.612775147078
 23
102.173388804965
 33
0.0
 14
53.6127751470782
 24
102.173388804965
 34
0.0
100
AcDbRotatedDimension
  0
ENDSEC
  0
SECTION
  2
OBJECTS
  0
DICTIONARY
  5
C
330
0
100
AcDbDictionary
281
     1
  3
ACAD_GROUP
350
D
  3
ACAD_LAYOUT
350
1A
  3
ACAD_MATERIAL
350
3B
  3
ACAD_MLEADERSTYLE
350
2FD
  3
ACAD_MLINESTYLE
350
17
  3
ACAD_PLOTSETTINGS
350
19
  3
ACAD_PLOTSTYLENAME
350
E
  3
ACAD_SCALELIST
350
54
  3
ACAD_VISUALSTYLE
350
2A
  3
AcDbVariableDictionary
350
2FB
  0
DICTIONARY
  5
D
102
{ACAD_REACTORS
330
C
102
}
330
C
100
AcDbDictionary
281
     1
  0
DICTIONARY
  5
1A
102
{ACAD_REACTORS
330
C
102
}
330
C
100
AcDbDictionary
281
     1
  3
Layout1
350
1E
  3
Layout2
350
26
  3
Model
350
22
  0
DICTIONARY
  5
3B
102
{ACAD_REACTORS
330
C
102
}
330
C
100
AcDbDictionary
281
     1
  3
ByBlock
350
3D
  3
ByLayer
350
3C
  3
Global
350
3E
  0
DICTIONARY
  5
2FD
102
{ACAD_REACTORS
330
C
102
}
330
C
100
AcDbDictionary
281
     1
  0
DICTIONARY
  5
17
102
{ACAD_REACTORS
330
C
102
}
330
C
100
AcDbDictionary
281
     1
  3
Standard
350
18
  0
DICTIONARY
  5
19
102
{ACAD_REACTORS
330
C
102
}
330
C
100
AcDbDictionary
281
     1
  0
ACDBDICTIONARYWDFLT
  5
E
102
{ACAD_REACTORS
330
C
102
}
330
C
100
AcDbDictionary
281
     1
  3
Normal
350
F
100
AcDbDictionaryWithDefault
340
F
  0
DICTIONARY
  5
54
102
{ACAD_REACTORS
330
C
102
}
330
C
100
AcDbDictionary
281
     1
  3
A0
350
55
  3
A1
350
56
  3
A2
350
57
  3
A3
350
58
  3
A4
350
59
  3
A5
350
5A
  3
A6
350
5B
  3
A7
350
5C
  3
A8
350
5D
  3
A9
350
5E
  3
B0
350
5F
  3
B1
350
60
  3
B2
350
61
  3
B3
350
62
  3
B4
350
63
  3
B5
350
64
  3
B6
350
65
  3
B7
350
66
  3
B8
350
67
  3
B9
350
68
  3
C0
350
69
  3
C1
350
6A
  3
C2
350
6B
  3
C3
350
6C
  3
C4
350
6D
  3
C5
350
6E
  3
C6
350
6F
  3
C7
350
70
  3
C8
350
71
  3
C9
350
72
  3
D0
350
73
  3
D1
350
74
  3
D2
350
75
  0
DICTIONARY
  5
2A
102
{ACAD_REACTORS
330
C
102
}
330
C
100
AcDbDictionary
281
     1
  3
2dWireframe
350
2F
  3
3D Hidden
350
31
  3
3dWireframe
350
30
  3
Basic
350
32
  3
Brighten
350
36
  3
ColorChange
350
3A
  3
Conceptual
350
34
  3
Dim
350
35
  3
Facepattern
350
39
  3
Flat
350
2B
  3
FlatWithEdges
350
2C
  3
Gouraud
350
2D
  3
GouraudWithEdges
350
2E
  3
Linepattern
350
38
  3
Realistic
350
33
  3
Thicken
350
37
  0
DICTIONARY
  5
2FB
102
{ACAD_REACTORS
330
C
102
}
330
C
100
AcDbDictionary
281
     1
  3
CANNOSCALE
350
2FE
  3
DIMASSOC
350
2FF
  3
HIDETEXT
350
300
  0
LAYOUT
  5
1E
102
{ACAD_REACTORS
330
1A
102
}
330
1A
100
AcDbPlotSettings
  1

  2
none_device
  4

  6

 40
0.0
 41
0.0
 42
0.0
 43
0.0
 44
0.0
 45
0.0
 46
0.0
 47
0.0
 48
0.0
 49
0.0
140
0.0
141
0.0
142
1.0
143
1.0
 70
   688
 72
     0
 73
     0
 74
     5
  7

 75
    16
147
1.0
148
0.0
149
0.0
100
AcDbLayout
  1
Layout1
 70
     1
 71
     1
 10
0.0
 20
0.0
 11
12.0
 21
9.0
 12
0.0
 22
0.0
 32
0.0
 14
1.00000000000000E+20
 24
1.00000000000000E+20
 34
1.00000000000000E+20
 15
-1.00000000000000E+20
 25
-1.00000000000000E+20
 35
-1.00000000000000E+20
146
0.0
 13
0.0
 23
0.0
 33
0.0
 16
1.0
 26
0.0
 36
0.0
 17
0.0
 27
1.0
 37
0.0
 76
     0
330
1B
  0
LAYOUT
  5
26
102
{ACAD_REACTORS
330
1A
102
}
330
1A
100
AcDbPlotSettings
  1

  2
none_device
  4

  6

 40
0.0
 41
0.0
 42
0.0
 43
0.0
 44
0.0
 45
0.0
 46
0.0
 47
0.0
 48
0.0
 49
0.0
140
0.0
141
0.0
142
1.0
143
1.0
 70
   688
 72
     0
 73
     0
 74
     5
  7

 75
    16
147
1.0
148
0.0
149
0.0
100
AcDbLayout
  1
Layout2
 70
     1
 71
     2
 10
0.0
 20
0.0
 11
0.0
 21
0.0
 12
0.0
 22
0.0
 32
0.0
 14
0.0
 24
0.0
 34
0.0
 15
0.0
 25
0.0
 35
0.0
146
0.0
 13
0.0
 23
0.0
 33
0.0
 16
1.0
 26
0.0
 36
0.0
 17
0.0
 27
1.0
 37
0.0
 76
     0
330
23
  0
LAYOUT
  5
22
102
{ACAD_REACTORS
330
1A
102
}
330
1A
100
AcDbPlotSettings
  1

  2
none_device
  4

  6

 40
0.0
 41
0.0
 42
0.0
 43
0.0
 44
0.0
 45
0.0
 46
0.0
 47
0.0
 48
0.0
 49
0.0
140
0.0
141
0.0
142
1.0
143
1.0
 70
  1712
 72
     0
 73
     0
 74
     0
  7

 75
     0
147
1.0
148
0.0
149
0.0
100
AcDbLayout
  1
Model
 70
     1
 71
     0
 10
0.0
 20
0.0
 11
12.0
 21
9.0
 12
0.0
 22
0.0
 32
0.0
 14
9.99999999999998
 24
9.99999999999995
 34
0.0
 15
287.0
 25
210.0
 35
0.0
146
0.0
 13
0.0
 23
0.0
 33
0.0
 16
1.0
 26
0.0
 36
0.0
 17
0.0
 27
1.0
 37
0.0
 76
     0
330
1F
331
29
  0
MATERIAL
  5
3D
102
{ACAD_REACTORS
330
3B
102
}
102
{ACAD_XDICTIONARY
360
323
102
}
330
3B
100
AcDbMaterial
  1
ByBlock
  0
MATERIAL
  5
3C
102
{ACAD_REACTORS
330
3B
102
}
102
{ACAD_XDICTIONARY
360
321
102
}
330
3B
100
AcDbMaterial
  1
ByLayer
  0
MATERIAL
  5
3E
102
{ACAD_REACTORS
330
3B
102
}
102
{ACAD_XDICTIONARY
360
325
102
}
330
3B
100
AcDbMaterial
  1
Global
  0
MLINESTYLE
  5
18
102
{ACAD_REACTORS
330
17
102
}
330
17
100
AcDbMlineStyle
  2
Standard
 70
     0
  3

 62
   256
 51
90.0
 52
90.0
 71
     2
 49
0.5
 62
   256
  6
BYLAYER
 49
-0.5
 62
   256
  6
BYLAYER
  0
ACDBPLACEHOLDER
  5
F
102
{ACAD_REACTORS
330
E
102
}
330
E
  0
SCALE
  5
55
102
{ACAD_REACTORS
330
54
102
}
330
54
100
AcDbScale
 70
     0
300
1:1
140
1.0
141
1.0
290
     1
  0
SCALE
  5
56
102
{ACAD_REACTORS
330
54
102
}
330
54
100
AcDbScale
 70
     0
300
1:2
140
1.0
141
2.0
290
     0
  0
SCALE
  5
57
102
{ACAD_REACTORS
330
54
102
}
330
54
100
AcDbScale
 70
     0
300
1:4
140
1.0
141
4.0
290
     0
  0
SCALE
  5
58
102
{ACAD_REACTORS
330
54
102
}
330
54
100
AcDbScale
 70
     0
300
1:5
140
1.0
141
5.0
290
     0
  0
SCALE
  5
59
102
{ACAD_REACTORS
330
54
102
}
330
54
100
AcDbScale
 70
     0
300
1:8
140
1.0
141
8.0
290
     0
  0
SCALE
  5
5A
102
{ACAD_REACTORS
330
54
102
}
330
54
100
AcDbScale
 70
     0
300
1:10
140
1.0
141
10.0
290
     0
  0
SCALE
  5
5B
102
{ACAD_REACTORS
330
54
102
}
330
54
100
AcDbScale
 70
     0
300
1:16
140
1.0
141
16.0
290
     0
  0
SCALE
  5
5C
102
{ACAD_REACTORS
330
54
102
}
330
54
100
AcDbScale
 70
     0
300
1:20
140
1.0
141
20.0
290
     0
  0
SCALE
  5
5D
102
{ACAD_REACTORS
330
54
102
}
330
54
100
AcDbScale
 70
     0
300
1:30
140
1.0
141
30.0
290
     0
  0
SCALE
  5
5E
102
{ACAD_REACTORS
330
54
102
}
330
54
100
AcDbScale
 70
     0
300
1:40
140
1.0
141
40.0
290
     0
  0
SCALE
  5
5F
102
{ACAD_REACTORS
330
54
102
}
330
54
100
AcDbScale
 70
     0
300
1:50
140
1.0
141
50.0
290
     0
  0
SCALE
  5
60
102
{ACAD_REACTORS
330
54
102
}
330
54
100
AcDbScale
 70
     0
300
1:100
140
1.0
141
100.0
290
     0
  0
SCALE
  5
61
102
{ACAD_REACTORS
330
54
102
}
330
54
100
AcDbScale
 70
     0
300
2:1
140
2.0
141
1.0
290
     0
  0
SCALE
  5
62
102
{ACAD_REACTORS
330
54
102
}
330
54
100
AcDbScale
 70
     0
300
4:1
140
4.0
141
1.0
290
     0
  0
SCALE
  5
63
102
{ACAD_REACTORS
330
54
102
}
330
54
100
AcDbScale
 70
     0
300
8:1
140
8.0
141
1.0
290
     0
  0
SCALE
  5
64
102
{ACAD_REACTORS
330
54
102
}
330
54
100
AcDbScale
 70
     0
300
10:1
140
10.0
141
1.0
290
     0
  0
SCALE
  5
65
102
{ACAD_REACTORS
330
54
102
}
330
54
100
AcDbScale
 70
     0
300
100:1
140
100.0
141
1.0
290
     0
  0
SCALE
  5
66
102
{ACAD_REACTORS
330
54
102
}
330
54
100
AcDbScale
 70
     0
300
1/128" = 1'-0"
140
0.0078125
141
12.0
290
     0
  0
SCALE
  5
67
102
{ACAD_REACTORS
330
54
102
}
330
54
100
AcDbScale
 70
     0
300
1/64" = 1'-0"
140
0.015625
141
12.0
290
     0
  0
SCALE
  5
68
102
{ACAD_REACTORS
330
54
102
}
330
54
100
AcDbScale
 70
     0
300
1/32" = 1'-0"
140
0.03125
141
12.0
290
     0
  0
SCALE
  5
69
102
{ACAD_REACTORS
330
54
102
}
330
54
100
AcDbScale
 70
     0
300
1/16" = 1'-0"
140
0.0625
141
12.0
290
     0
  0
SCALE
  5
6A
102
{ACAD_REACTORS
330
54
102
}
330
54
100
AcDbScale
 70
     0
300
3/32" = 1'-0"
140
0.09375
141
12.0
290
     0
  0
SCALE
  5
6B
102
{ACAD_REACTORS
330
54
102
}
330
54
100
AcDbScale
 70
     0
300
1/8" = 1'-0"
140
0.125
141
12.0
290
     0
  0
SCALE
  5
6C
102
{ACAD_REACTORS
330
54
102
}
330
54
100
AcDbScale
 70
     0
300
3/16" = 1'-0"
140
0.1875
141
12.0
290
     0
  0
SCALE
  5
6D
102
{ACAD_REACTORS
330
54
102
}
330
54
100
AcDbScale
 70
     0
300
1/4" = 1'-0"
140
0.25
141
12.0
290
     0
  0
SCALE
  5
6E
102
{ACAD_REACTORS
330
54
102
}
330
54
100
AcDbScale
 70
     0
300
3/8" = 1'-0"
140
0.375
141
12.0
290
     0
  0
SCALE
  5
6F
102
{ACAD_REACTORS
330
54
102
}
330
54
100
AcDbScale
 70
     0
300
1/2" = 1'-0"
140
0.5
141
12.0
290
     0
  0
SCALE
  5
70
102
{ACAD_REACTORS
330
54
102
}
330
54
100
AcDbScale
 70
     0
300
3/4" = 1'-0"
140
0.75
141
12.0
290
     0
  0
SCALE
  5
71
102
{ACAD_REACTORS
330
54
102
}
330
54
100
AcDbScale
 70
     0
300
1" = 1'-0"
140
1.0
141
12.0
290
     0
  0
SCALE
  5
72
102
{ACAD_REACTORS
330
54
102
}
330
54
100
AcDbScale
 70
     0
300
1-1/2" = 1'-0"
140
1.5
141
12.0
290
     0
  0
SCALE
  5
73
102
{ACAD_REACTORS
330
54
102
}
330
54
100
AcDbScale
 70
     0
300
3" = 1'-0"
140
3.0
141
12.0
290
     0
  0
SCALE
  5
74
102
{ACAD_REACTORS
330
54
102
}
330
54
100
AcDbScale
 70
     0
300
6" = 1'-0"
140
6.0
141
12.0
290
     0
  0
SCALE
  5
75
102
{ACAD_REACTORS
330
54
102
}
330
54
100
AcDbScale
 70
     0
300
1'-0" = 1'-0"
140
12.0
141
12.0
290
     0
  0
VISUALSTYLE
  5
2F
102
{ACAD_REACTORS
330
2A
102
}
102
{ACAD_XDICTIONARY
360
309
102
}
330
2A
100
AcDbVisualStyle
  2
2dWireframe
 70
     4
 71
     0
 72
     2
 73
     0
 90
        0
 40
-0.6
 41
-30.0
 62
     5
 63
     7
 74
     1
 91
        4
 64
     7
 65
   257
 75
     1
175
     1
 42
1.0
 92
        0
 66
   257
 43
1.0
 76
     1
 77
     6
 78
     2
 67
     7
 79
     5
170
     0
171
     0
290
     0
174
     0
 93
        1
 44
0.0
173
     0
291
     0
 45
0.0
1001
ACAD
1000
AcDbSavedByObjectVersion
1070
     0
  0
VISUALSTYLE
  5
31
102
{ACAD_REACTORS
330
2A
102
}
102
{ACAD_XDICTIONARY
360
30D
102
}
330
2A
100
AcDbVisualStyle
  2
3D Hidden
 70
     6
 71
     1
 72
     2
 73
     2
 90
        0
 40
-0.6
 41
-30.0
 62
     5
 63
     7
 74
     2
 91
        2
 64
     7
 65
   257
 75
     2
175
     1
 42
40.0
 92
        0
 66
   257
 43
1.0
 76
     1
 77
     6
 78
     2
 67
     7
 79
     3
170
     0
171
     0
290
     0
174
     0
 93
        1
 44
0.0
173
     0
291
     0
 45
0.0
1001
ACAD
1000
AcDbSavedByObjectVersion
1070
     0
  0
VISUALSTYLE
  5
30
102
{ACAD_REACTORS
330
2A
102
}
102
{ACAD_XDICTIONARY
360
30B
102
}
330
2A
100
AcDbVisualStyle
  2
3dWireframe
 70
     5
 71
     0
 72
     2
 73
     0
 90
        0
 40
-0.6
 41
-30.0
 62
     5
 63
     7
 74
     1
 91
        4
 64
     7
 65
   257
 75
     1
175
     1
 42
1.0
 92
        0
 66
   257
 43
1.0
 76
     1
 77
     6
 78
     2
 67
     7
 79
     5
170
     0
171
     0
290
     0
174
     0
 93
        1
 44
0.0
173
     0
291
     0
 45
0.0
1001
ACAD
1000
AcDbSavedByObjectVersion
1070
     0
  0
VISUALSTYLE
  5
32
102
{ACAD_REACTORS
330
2A
102
}
102
{ACAD_XDICTIONARY
360
30F
102
}
330
2A
100
AcDbVisualStyle
  2
Basic
 70
     7
 71
     1
 72
     0
 73
     1
 90
        0
 40
-0.6
 41
-30.0
 62
     5
 63
     7
 74
     0
 91
        4
 64
     7
 65
   257
 75
     1
175
     1
 42
1.0
 92
        8
 66
     7
 43
1.0
 76
     1
 77
     6
 78
     2
 67
     7
 79
     5
170
     0
171
     0
290
     0
174
     0
 93
        1
 44
0.0
173
     0
291
     1
 45
0.0
1001
ACAD
1000
AcDbSavedByObjectVersion
1070
     0
  0
VISUALSTYLE
  5
36
102
{ACAD_REACTORS
330
2A
102
}
102
{ACAD_XDICTIONARY
360
317
102
}
330
2A
100
AcDbVisualStyle
  2
Brighten
 70
    12
 71
     2
 72
     2
 73
     0
 90
        0
 40
-0.6
 41
-30.0
 62
     5
 63
     7
 74
     1
 91
        4
 64
     7
 65
   257
 75
     1
175
     1
 42
1.0
 92
        8
 66
     7
 43
1.0
 76
     1
 77
     6
 78
     2
 67
     7
 79
     5
170
     0
171
     0
290
     0
174
     0
 93
        1
 44
50.0
173
     0
291
     1
 45
0.0
1001
ACAD
1000
AcDbSavedByObjectVersion
1070
     0
  0
VISUALSTYLE
  5
3A
102
{ACAD_REACTORS
330
2A
102
}
102
{ACAD_XDICTIONARY
360
31F
102
}
330
2A
100
AcDbVisualStyle
  2
ColorChange
 70
    16
 71
     2
 72
     2
 73
     3
 90
        0
 40
-0.6
 41
-30.0
 62
     5
 63
     8
 74
     1
 91
        4
 64
     7
 65
   257
 75
     1
175
     1
 42
1.0
 92
        8
 66
     8
 43
1.0
 76
     1
 77
     6
 78
     2
 67
     7
 79
     5
170
     0
171
     0
290
     0
174
     0
 93
        1
 44
0.0
173
     0
291
     1
 45
0.0
1001
ACAD
1000
AcDbSavedByObjectVersion
1070
     0
  0
VISUALSTYLE
  5
34
102
{ACAD_REACTORS
330
2A
102
}
102
{ACAD_XDICTIONARY
360
313
102
}
330
2A
100
AcDbVisualStyle
  2
Conceptual
 70
     9
 71
     3
 72
     2
 73
     0
 90
        0
 40
-0.6
 41
-30.0
 62
     5
 63
     7
 74
     2
 91
        2
 64
     7
 65
   257
 75
     1
175
     1
 42
40.0
 92
        8
 66
     7
 43
1.0
 76
     1
 77
     6
 78
     2
 67
     7
 79
     3
170
     0
171
     0
290
     0
174
     0
 93
        1
 44
0.0
173
     0
291
     0
 45
0.0
1001
ACAD
1000
AcDbSavedByObjectVersion
1070
     0
  0
VISUALSTYLE
  5
35
102
{ACAD_REACTORS
330
2A
102
}
102
{ACAD_XDICTIONARY
360
315
102
}
330
2A
100
AcDbVisualStyle
  2
Dim
 70
    11
 71
     2
 72
     2
 73
     0
 90
        0
 40
-0.6
 41
-30.0
 62
     5
 63
     7
 74
     1
 91
        4
 64
     7
 65
   257
 75
     1
175
     1
 42
1.0
 92
        8
 66
     7
 43
1.0
 76
     1
 77
     6
 78
     2
 67
     7
 79
     5
170
     0
171
     0
290
     0
174
     0
 93
        1
 44
-50.0
173
     0
291
     1
 45
0.0
1001
ACAD
1000
AcDbSavedByObjectVersion
1070
     0
  0
VISUALSTYLE
  5
39
102
{ACAD_REACTORS
330
2A
102
}
102
{ACAD_XDICTIONARY
360
31D
102
}
330
2A
100
AcDbVisualStyle
  2
Facepattern
 70
    15
 71
     2
 72
     2
 73
     0
 90
        0
 40
-0.6
 41
-30.0
 62
     5
 63
     7
 74
     1
 91
        4
 64
     7
 65
   257
 75
     1
175
     1
 42
1.0
 92
        8
 66
     7
 43
1.0
 76
     1
 77
     6
 78
     2
 67
     7
 79
     5
170
     0
171
     0
290
     0
174
     0
 93
        1
 44
0.0
173
     0
291
     1
 45
0.0
1001
ACAD
1000
AcDbSavedByObjectVersion
1070
     0
  0
VISUALSTYLE
  5
2B
102
{ACAD_REACTORS
330
2A
102
}
102
{ACAD_XDICTIONARY
360
301
102
}
330
2A
100
AcDbVisualStyle
  2
Flat
 70
     0
 71
     2
 72
     1
 73
     1
 90
        2
 40
-0.6
 41
30.0
 62
     5
 63
     7
 74
     0
 91
        4
 64
     7
 65
   257
 75
     1
175
     1
 42
1.0
 92
        8
 66
     7
 43
1.0
 76
     1
 77
     6
 78
     2
 67
     7
 79
     5
170
     0
171
     0
290
     0
174
     0
 93
       13
 44
0.0
173
     0
291
     1
 45
0.0
1001
ACAD
1000
AcDbSavedByObjectVersion
1070
     0
  0
VISUALSTYLE
  5
2C
102
{ACAD_REACTORS
330
2A
102
}
102
{ACAD_XDICTIONARY
360
303
102
}
330
2A
100
AcDbVisualStyle
  2
FlatWithEdges
 70
     1
 71
     2
 72
     1
 73
     1
 90
        2
 40
-0.6
 41
30.0
 62
     5
 63
     7
 74
     1
 91
        4
 64
     7
 65
   257
 75
     1
175
     1
 42
1.0
 92
        0
 66
   257
 43
1.0
 76
     1
 77
     6
 78
     2
 67
     7
 79
     5
170
     0
171
     0
290
     0
174
     0
 93
       13
 44
0.0
173
     0
291
     1
 45
0.0
1001
ACAD
1000
AcDbSavedByObjectVersion
1070
     0
  0
VISUALSTYLE
  5
2D
102
{ACAD_REACTORS
330
2A
102
}
102
{ACAD_XDICTIONARY
360
305
102
}
330
2A
100
AcDbVisualStyle
  2
Gouraud
 70
     2
 71
     2
 72
     2
 73
     1
 90
        2
 40
-0.6
 41
30.0
 62
     5
 63
     7
 74
     0
 91
        4
 64
     7
 65
   257
 75
     1
175
     1
 42
1.0
 92
        0
 66
     7
 43
1.0
 76
     1
 77
     6
 78
     2
 67
     7
 79
     5
170
     0
171
     0
290
     0
174
     0
 93
       13
 44
0.0
173
     0
291
     1
 45
0.0
1001
ACAD
1000
AcDbSavedByObjectVersion
1070
     0
  0
VISUALSTYLE
  5
2E
102
{ACAD_REACTORS
330
2A
102
}
102
{ACAD_XDICTIONARY
360
307
102
}
330
2A
100
AcDbVisualStyle
  2
GouraudWithEdges
 70
     3
 71
     2
 72
     2
 73
     1
 90
        2
 40
-0.6
 41
30.0
 62
     5
 63
     7
 74
     1
 91
        4
 64
     7
 65
   257
 75
     1
175
     1
 42
1.0
 92
        0
 66
   257
 43
1.0
 76
     1
 77
     6
 78
     2
 67
     7
 79
     5
170
     0
171
     0
290
     0
174
     0
 93
       13
 44
0.0
173
     0
291
     1
 45
0.0
1001
ACAD
1000
AcDbSavedByObjectVersion
1070
     0
  0
VISUALSTYLE
  5
38
102
{ACAD_REACTORS
330
2A
102
}
102
{ACAD_XDICTIONARY
360
31B
102
}
330
2A
100
AcDbVisualStyle
  2
Linepattern
 70
    14
 71
     2
 72
     2
 73
     0
 90
        0
 40
-0.6
 41
-30.0
 62
     5
 63
     7
 74
     1
 91
        4
 64
     7
 65
   257
 75
     7
175
     7
 42
1.0
 92
        8
 66
     7
 43
1.0
 76
     1
 77
     6
 78
     2
 67
     7
 79
     5
170
     0
171
     0
290
     0
174
     0
 93
        1
 44
0.0
173
     0
291
     1
 45
0.0
1001
ACAD
1000
AcDbSavedByObjectVersion
1070
     0
  0
VISUALSTYLE
  5
33
102
{ACAD_REACTORS
330
2A
102
}
102
{ACAD_XDICTIONARY
360
311
102
}
330
2A
100
AcDbVisualStyle
  2
Realistic
 70
     8
 71
     2
 72
     2
 73
     0
 90
        0
 40
-0.6
 41
-30.0
 62
     5
 63
     7
 74
     1
 91
        0
 64
     7
 65
   257
 75
     1
175
     1
 42
1.0
 92
        8
 66
     8
 43
1.0
 76
     1
 77
     6
 78
     2
 67
     7
 79
     5
170
     0
171
     0
290
     0
174
     0
 93
       13
 44
0.0
173
     0
291
     0
 45
0.0
1001
ACAD
1000
AcDbSavedByObjectVersion
1070
     0
  0
VISUALSTYLE
  5
37
102
{ACAD_REACTORS
330
2A
102
}
102
{ACAD_XDICTIONARY
360
319
102
}
330
2A
100
AcDbVisualStyle
  2
Thicken
 70
    13
 71
     2
 72
     2
 73
     0
 90
        0
 40
-0.6
 41
-30.0
 62
     5
 63
     7
 74
     1
 91
        4
 64
     7
 65
   257
 75
     1
175
     1
 42
1.0
 92
       12
 66
     7
 43
1.0
 76
     1
 77
     6
 78
     2
 67
     7
 79
     5
170
     0
171
     0
290
     0
174
     0
 93
        1
 44
0.0
173
     0
291
     1
 45
0.0
1001
ACAD
1000
AcDbSavedByObjectVersion
1070
     0
  0
DICTIONARYVAR
  5
2FE
102
{ACAD_REACTORS
330
2FB
102
}
330
2FB
100
DictionaryVariables
280
     0
  1
1:1
  0
DICTIONARYVAR
  5
2FF
102
{ACAD_REACTORS
330
2FB
102
}
330
2FB
100
DictionaryVariables
280
     0
  1
2
  0
DICTIONARYVAR
  5
300
102
{ACAD_REACTORS
330
2FB
102
}
330
2FB
100
DictionaryVariables
280
     0
  1
1
  0
DICTIONARY
  5
323
330
3D
100
AcDbDictionary
280
     1
281
     1
  3
ACAD_XREC_ROUNDTRIP
360
324
  0
DICTIONARY
  5
321
330
3C
100
AcDbDictionary
280
     1
281
     1
  3
ACAD_XREC_ROUNDTRIP
360
322
  0
DICTIONARY
  5
325
330
3E
100
AcDbDictionary
280
     1
281
     1
  3
ACAD_XREC_ROUNDTRIP
360
326
  0
DICTIONARY
  5
309
330
2F
100
AcDbDictionary
280
     1
281
     1
  3
ACAD_XREC_ROUNDTRIP
360
30A
  0
DICTIONARY
  5
30D
330
31
100
AcDbDictionary
280
     1
281
     1
  3
ACAD_XREC_ROUNDTRIP
360
30E
  0
DICTIONARY
  5
30B
330
30
100
AcDbDictionary
280
     1
281
     1
  3
ACAD_XREC_ROUNDTRIP
360
30C
  0
DICTIONARY
  5
30F
330
32
100
AcDbDictionary
280
     1
281
     1
  3
ACAD_XREC_ROUNDTRIP
360
310
  0
DICTIONARY
  5
317
330
36
100
AcDbDictionary
280
     1
281
     1
  3
ACAD_XREC_ROUNDTRIP
360
318
  0
DICTIONARY
  5
31F
330
3A
100
AcDbDictionary
280
     1
281
     1
  3
ACAD_XREC_ROUNDTRIP
360
320
  0
DICTIONARY
  5
313
330
34
100
AcDbDictionary
280
     1
281
     1
  3
ACAD_XREC_ROUNDTRIP
360
314
  0
DICTIONARY
  5
315
330
35
100
AcDbDictionary
280
     1
281
     1
  3
ACAD_XREC_ROUNDTRIP
360
316
  0
DICTIONARY
  5
31D
330
39
100
AcDbDictionary
280
     1
281
     1
  3
ACAD_XREC_ROUNDTRIP
360
31E
  0
DICTIONARY
  5
301
330
2B
100
AcDbDictionary
280
     1
281
     1
  3
ACAD_XREC_ROUNDTRIP
360
302
  0
DICTIONARY
  5
303
330
2C
100
AcDbDictionary
280
     1
281
     1
  3
ACAD_XREC_ROUNDTRIP
360
304
  0
DICTIONARY
  5
305
330
2D
100
AcDbDictionary
280
     1
281
     1
  3
ACAD_XREC_ROUNDTRIP
360
306
  0
DICTIONARY
  5
307
330
2E
100
AcDbDictionary
280
     1
281
     1
  3
ACAD_XREC_ROUNDTRIP
360
308
  0
DICTIONARY
  5
31B
330
38
100
AcDbDictionary
280
     1
281
     1
  3
ACAD_XREC_ROUNDTRIP
360
31C
  0
DICTIONARY
  5
311
330
33
100
AcDbDictionary
280
     1
281
     1
  3
ACAD_XREC_ROUNDTRIP
360
312
  0
DICTIONARY
  5
319
330
37
100
AcDbDictionary
280
     1
281
     1
  3
ACAD_XREC_ROUNDTRIP
360
31A
  0
XRECORD
  5
324
102
{ACAD_REACTORS
330
323
102
}
330
323
100
AcDbXrecord
280
     1
102
MATERIAL
148
0.0
149
0.0
149
0.0
 93
        0
 94
      127
282
     0
 72
     1
 77
     1
171
     1
175
     1
179
     1
273
     0
  0
XRECORD
  5
322
102
{ACAD_REACTORS
330
321
102
}
330
321
100
AcDbXrecord
280
     1
102
MATERIAL
148
0.0
149
0.0
149
0.0
 93
        0
 94
      127
282
     0
 72
     1
 77
     1
171
     1
175
     1
179
     1
273
     0
  0
XRECORD
  5
326
102
{ACAD_REACTORS
330
325
102
}
330
325
100
AcDbXrecord
280
     1
102
MATERIAL
148
0.0
149
0.0
149
0.0
 93
        0
 94
      127
282
     0
 72
     1
 77
     1
171
     1
175
     1
179
     1
273
     0
  0
XRECORD
  5
30A
102
{ACAD_REACTORS
330
309
102
}
330
309
100
AcDbXrecord
280
     1
102
RTVSPropertyOp0
 70
     1
102
RTVSPropertyOp1
 70
     1
102
RTVSPropertyOp2
 70
     1
102
RTVSPropertyOp3
 70
     1
102
RTVSPropertyOp4
 70
     1
102
RTVSPropertyOp5
 70
     1
102
RTVSPropertyOp6
 70
     1
102
RTVSPropertyOp7
 70
     1
102
RTVSPropertyOp8
 70
     1
102
RTVSPropertyOp9
 70
     1
102
RTVSPropertyOp10
 70
     1
102
RTVSPropertyOp11
 70
     1
102
RTVSPropertyOp12
 70
     1
102
RTVSPropertyOp13
 70
     1
102
RTVSPropertyOp14
 70
     1
102
RTVSPropertyOp15
 70
     1
102
RTVSPropertyOp16
 70
     1
102
RTVSPropertyOp17
 70
     1
102
RTVSPropertyOp18
 70
     1
102
RTVSPropertyOp19
 70
     1
102
RTVSPropertyOp20
 70
     1
102
RTVSPropertyOp21
 70
     1
102
RTVSPropertyOp22
 70
     1
102
RTVSPropertyOp23
 70
     1
102
RTVSPropertyOp24
 70
     1
102
RTVSPropertyOp25
 70
     1
102
RTVSPropertyOp26
 70
     1
102
RTVSPropertyOp27
 70
     1
  0
XRECORD
  5
30E
102
{ACAD_REACTORS
330
30D
102
}
330
30D
100
AcDbXrecord
280
     1
102
RTVSPropertyOp0
 70
     1
102
RTVSPropertyOp1
 70
     1
102
RTVSPropertyOp2
 70
     1
102
RTVSPropertyOp3
 70
     1
102
RTVSPropertyOp4
 70
     1
102
RTVSPropertyOp5
 70
     1
102
RTVSPropertyOp6
 70
     1
102
RTVSPropertyOp7
 70
     1
102
RTVSPropertyOp8
 70
     1
102
RTVSPropertyOp9
 70
     1
102
RTVSPropertyOp10
 70
     1
102
RTVSPropertyOp11
 70
     1
102
RTVSPropertyOp12
 70
     1
102
RTVSPropertyOp13
 70
     1
102
RTVSPropertyOp14
 70
     1
102
RTVSPropertyOp15
 70
     1
102
RTVSPropertyOp16
 70
     1
102
RTVSPropertyOp17
 70
     1
102
RTVSPropertyOp18
 70
     1
102
RTVSPropertyOp19
 70
     1
102
RTVSPropertyOp20
 70
     1
102
RTVSPropertyOp21
 70
     1
102
RTVSPropertyOp22
 70
     1
102
RTVSPropertyOp23
 70
     1
102
RTVSPropertyOp24
 70
     1
102
RTVSPropertyOp25
 70
     1
102
RTVSPropertyOp26
 70
     1
102
RTVSPropertyOp27
 70
     1
  0
XRECORD
  5
30C
102
{ACAD_REACTORS
330
30B
102
}
330
30B
100
AcDbXrecord
280
     1
102
RTVSPropertyOp0
 70
     1
102
RTVSPropertyOp1
 70
     1
102
RTVSPropertyOp2
 70
     1
102
RTVSPropertyOp3
 70
     1
102
RTVSPropertyOp4
 70
     1
102
RTVSPropertyOp5
 70
     1
102
RTVSPropertyOp6
 70
     1
102
RTVSPropertyOp7
 70
     1
102
RTVSPropertyOp8
 70
     1
102
RTVSPropertyOp9
 70
     1
102
RTVSPropertyOp10
 70
     1
102
RTVSPropertyOp11
 70
     1
102
RTVSPropertyOp12
 70
     1
102
RTVSPropertyOp13
 70
     1
102
RTVSPropertyOp14
 70
     1
102
RTVSPropertyOp15
 70
     1
102
RTVSPropertyOp16
 70
     1
102
RTVSPropertyOp17
 70
     1
102
RTVSPropertyOp18
 70
     1
102
RTVSPropertyOp19
 70
     1
102
RTVSPropertyOp20
 70
     1
102
RTVSPropertyOp21
 70
     1
102
RTVSPropertyOp22
 70
     1
102
RTVSPropertyOp23
 70
     1
102
RTVSPropertyOp24
 70
     1
102
RTVSPropertyOp25
 70
     1
102
RTVSPropertyOp26
 70
     1
102
RTVSPropertyOp27
 70
     1
  0
XRECORD
  5
310
102
{ACAD_REACTORS
330
30F
102
}
330
30F
100
AcDbXrecord
280
     1
102
RTVSPropertyOp0
 70
     1
102
RTVSPropertyOp1
 70
     1
102
RTVSPropertyOp2
 70
     1
102
RTVSPropertyOp3
 70
     1
102
RTVSPropertyOp4
 70
     1
102
RTVSPropertyOp5
 70
     1
102
RTVSPropertyOp6
 70
     1
102
RTVSPropertyOp7
 70
     1
102
RTVSPropertyOp8
 70
     1
102
RTVSPropertyOp9
 70
     1
102
RTVSPropertyOp10
 70
     1
102
RTVSPropertyOp11
 70
     1
102
RTVSPropertyOp12
 70
     1
102
RTVSPropertyOp13
 70
     1
102
RTVSPropertyOp14
 70
     1
102
RTVSPropertyOp15
 70
     1
102
RTVSPropertyOp16
 70
     1
102
RTVSPropertyOp17
 70
     1
102
RTVSPropertyOp18
 70
     1
102
RTVSPropertyOp19
 70
     1
102
RTVSPropertyOp20
 70
     1
102
RTVSPropertyOp21
 70
     1
102
RTVSPropertyOp22
 70
     1
102
RTVSPropertyOp23
 70
     1
102
RTVSPropertyOp24
 70
     1
102
RTVSPropertyOp25
 70
     1
102
RTVSPropertyOp26
 70
     1
102
RTVSPropertyOp27
 70
     1
  0
XRECORD
  5
318
102
{ACAD_REACTORS
330
317
102
}
330
317
100
AcDbXrecord
280
     1
102
RTVSPropertyOp0
 70
     1
102
RTVSPropertyOp1
 70
     1
102
RTVSPropertyOp2
 70
     1
102
RTVSPropertyOp3
 70
     1
102
RTVSPropertyOp4
 70
     1
102
RTVSPropertyOp5
 70
     1
102
RTVSPropertyOp6
 70
     1
102
RTVSPropertyOp7
 70
     1
102
RTVSPropertyOp8
 70
     1
102
RTVSPropertyOp9
 70
     1
102
RTVSPropertyOp10
 70
     1
102
RTVSPropertyOp11
 70
     1
102
RTVSPropertyOp12
 70
     1
102
RTVSPropertyOp13
 70
     1
102
RTVSPropertyOp14
 70
     1
102
RTVSPropertyOp15
 70
     1
102
RTVSPropertyOp16
 70
     1
102
RTVSPropertyOp17
 70
     1
102
RTVSPropertyOp18
 70
     1
102
RTVSPropertyOp19
 70
     1
102
RTVSPropertyOp20
 70
     1
102
RTVSPropertyOp21
 70
     1
102
RTVSPropertyOp22
 70
     1
102
RTVSPropertyOp23
 70
     1
102
RTVSPropertyOp24
 70
     1
102
RTVSPropertyOp25
 70
     1
102
RTVSPropertyOp26
 70
     1
102
RTVSPropertyOp27
 70
     1
  0
XRECORD
  5
320
102
{ACAD_REACTORS
330
31F
102
}
330
31F
100
AcDbXrecord
280
     1
102
RTVSPropertyOp0
 70
     1
102
RTVSPropertyOp1
 70
     1
102
RTVSPropertyOp2
 70
     1
102
RTVSPropertyOp3
 70
     1
102
RTVSPropertyOp4
 70
     1
102
RTVSPropertyOp5
 70
     1
102
RTVSPropertyOp6
 70
     1
102
RTVSPropertyOp7
 70
     1
102
RTVSPropertyOp8
 70
     1
102
RTVSPropertyOp9
 70
     1
102
RTVSPropertyOp10
 70
     1
102
RTVSPropertyOp11
 70
     1
102
RTVSPropertyOp12
 70
     1
102
RTVSPropertyOp13
 70
     1
102
RTVSPropertyOp14
 70
     1
102
RTVSPropertyOp15
 70
     1
102
RTVSPropertyOp16
 70
     1
102
RTVSPropertyOp17
 70
     1
102
RTVSPropertyOp18
 70
     1
102
RTVSPropertyOp19
 70
     1
102
RTVSPropertyOp20
 70
     1
102
RTVSPropertyOp21
 70
     1
102
RTVSPropertyOp22
 70
     1
102
RTVSPropertyOp23
 70
     1
102
RTVSPropertyOp24
 70
     1
102
RTVSPropertyOp25
 70
     1
102
RTVSPropertyOp26
 70
     1
102
RTVSPropertyOp27
 70
     1
  0
XRECORD
  5
314
102
{ACAD_REACTORS
330
313
102
}
330
313
100
AcDbXrecord
280
     1
102
RTVSPropertyOp0
 70
     1
102
RTVSPropertyOp1
 70
     1
102
RTVSPropertyOp2
 70
     1
102
RTVSPropertyOp3
 70
     1
102
RTVSPropertyOp4
 70
     1
102
RTVSPropertyOp5
 70
     1
102
RTVSPropertyOp6
 70
     1
102
RTVSPropertyOp7
 70
     1
102
RTVSPropertyOp8
 70
     1
102
RTVSPropertyOp9
 70
     1
102
RTVSPropertyOp10
 70
     1
102
RTVSPropertyOp11
 70
     1
102
RTVSPropertyOp12
 70
     1
102
RTVSPropertyOp13
 70
     1
102
RTVSPropertyOp14
 70
     1
102
RTVSPropertyOp15
 70
     1
102
RTVSPropertyOp16
 70
     1
102
RTVSPropertyOp17
 70
     1
102
RTVSPropertyOp18
 70
     1
102
RTVSPropertyOp19
 70
     1
102
RTVSPropertyOp20
 70
     1
102
RTVSPropertyOp21
 70
     1
102
RTVSPropertyOp22
 70
     1
102
RTVSPropertyOp23
 70
     1
102
RTVSPropertyOp24
 70
     1
102
RTVSPropertyOp25
 70
     1
102
RTVSPropertyOp26
 70
     1
102
RTVSPropertyOp27
 70
     1
  0
XRECORD
  5
316
102
{ACAD_REACTORS
330
315
102
}
330
315
100
AcDbXrecord
280
     1
102
RTVSPropertyOp0
 70
     1
102
RTVSPropertyOp1
 70
     1
102
RTVSPropertyOp2
 70
     1
102
RTVSPropertyOp3
 70
     1
102
RTVSPropertyOp4
 70
     1
102
RTVSPropertyOp5
 70
     1
102
RTVSPropertyOp6
 70
     1
102
RTVSPropertyOp7
 70
     1
102
RTVSPropertyOp8
 70
     1
102
RTVSPropertyOp9
 70
     1
102
RTVSPropertyOp10
 70
     1
102
RTVSPropertyOp11
 70
     1
102
RTVSPropertyOp12
 70
     1
102
RTVSPropertyOp13
 70
     1
102
RTVSPropertyOp14
 70
     1
102
RTVSPropertyOp15
 70
     1
102
RTVSPropertyOp16
 70
     1
102
RTVSPropertyOp17
 70
     1
102
RTVSPropertyOp18
 70
     1
102
RTVSPropertyOp19
 70
     1
102
RTVSPropertyOp20
 70
     1
102
RTVSPropertyOp21
 70
     1
102
RTVSPropertyOp22
 70
     1
102
RTVSPropertyOp23
 70
     1
102
RTVSPropertyOp24
 70
     1
102
RTVSPropertyOp25
 70
     1
102
RTVSPropertyOp26
 70
     1
102
RTVSPropertyOp27
 70
     1
  0
XRECORD
  5
31E
102
{ACAD_REACTORS
330
31D
102
}
330
31D
100
AcDbXrecord
280
     1
102
RTVSPropertyOp0
 70
     1
102
RTVSPropertyOp1
 70
     1
102
RTVSPropertyOp2
 70
     1
102
RTVSPropertyOp3
 70
     1
102
RTVSPropertyOp4
 70
     1
102
RTVSPropertyOp5
 70
     1
102
RTVSPropertyOp6
 70
     1
102
RTVSPropertyOp7
 70
     1
102
RTVSPropertyOp8
 70
     1
102
RTVSPropertyOp9
 70
     1
102
RTVSPropertyOp10
 70
     1
102
RTVSPropertyOp11
 70
     1
102
RTVSPropertyOp12
 70
     1
102
RTVSPropertyOp13
 70
     1
102
RTVSPropertyOp14
 70
     1
102
RTVSPropertyOp15
 70
     1
102
RTVSPropertyOp16
 70
     1
102
RTVSPropertyOp17
 70
     1
102
RTVSPropertyOp18
 70
     1
102
RTVSPropertyOp19
 70
     1
102
RTVSPropertyOp20
 70
     1
102
RTVSPropertyOp21
 70
     1
102
RTVSPropertyOp22
 70
     1
102
RTVSPropertyOp23
 70
     1
102
RTVSPropertyOp24
 70
     1
102
RTVSPropertyOp25
 70
     1
102
RTVSPropertyOp26
 70
     1
102
RTVSPropertyOp27
 70
     1
  0
XRECORD
  5
302
102
{ACAD_REACTORS
330
301
102
}
330
301
100
AcDbXrecord
280
     1
102
RTVSPropertyOp0
 70
     1
102
RTVSPropertyOp1
 70
     1
102
RTVSPropertyOp2
 70
     1
102
RTVSPropertyOp3
 70
     1
102
RTVSPropertyOp4
 70
     1
102
RTVSPropertyOp5
 70
     1
102
RTVSPropertyOp6
 70
     1
102
RTVSPropertyOp7
 70
     1
102
RTVSPropertyOp8
 70
     1
102
RTVSPropertyOp9
 70
     1
102
RTVSPropertyOp10
 70
     1
102
RTVSPropertyOp11
 70
     1
102
RTVSPropertyOp12
 70
     1
102
RTVSPropertyOp13
 70
     1
102
RTVSPropertyOp14
 70
     1
102
RTVSPropertyOp15
 70
     1
102
RTVSPropertyOp16
 70
     1
102
RTVSPropertyOp17
 70
     1
102
RTVSPropertyOp18
 70
     1
102
RTVSPropertyOp19
 70
     1
102
RTVSPropertyOp20
 70
     1
102
RTVSPropertyOp21
 70
     1
102
RTVSPropertyOp22
 70
     1
102
RTVSPropertyOp23
 70
     1
102
RTVSPropertyOp24
 70
     1
102
RTVSPropertyOp25
 70
     1
102
RTVSPropertyOp26
 70
     1
102
RTVSPropertyOp27
 70
     1
  0
XRECORD
  5
304
102
{ACAD_REACTORS
330
303
102
}
330
303
100
AcDbXrecord
280
     1
102
RTVSPropertyOp0
 70
     1
102
RTVSPropertyOp1
 70
     1
102
RTVSPropertyOp2
 70
     1
102
RTVSPropertyOp3
 70
     1
102
RTVSPropertyOp4
 70
     1
102
RTVSPropertyOp5
 70
     1
102
RTVSPropertyOp6
 70
     1
102
RTVSPropertyOp7
 70
     1
102
RTVSPropertyOp8
 70
     1
102
RTVSPropertyOp9
 70
     1
102
RTVSPropertyOp10
 70
     1
102
RTVSPropertyOp11
 70
     1
102
RTVSPropertyOp12
 70
     1
102
RTVSPropertyOp13
 70
     1
102
RTVSPropertyOp14
 70
     1
102
RTVSPropertyOp15
 70
     1
102
RTVSPropertyOp16
 70
     1
102
RTVSPropertyOp17
 70
     1
102
RTVSPropertyOp18
 70
     1
102
RTVSPropertyOp19
 70
     1
102
RTVSPropertyOp20
 70
     1
102
RTVSPropertyOp21
 70
     1
102
RTVSPropertyOp22
 70
     1
102
RTVSPropertyOp23
 70
     1
102
RTVSPropertyOp24
 70
     1
102
RTVSPropertyOp25
 70
     1
102
RTVSPropertyOp26
 70
     1
102
RTVSPropertyOp27
 70
     1
  0
XRECORD
  5
306
102
{ACAD_REACTORS
330
305
102
}
330
305
100
AcDbXrecord
280
     1
102
RTVSPropertyOp0
 70
     1
102
RTVSPropertyOp1
 70
     1
102
RTVSPropertyOp2
 70
     1
102
RTVSPropertyOp3
 70
     1
102
RTVSPropertyOp4
 70
     1
102
RTVSPropertyOp5
 70
     1
102
RTVSPropertyOp6
 70
     1
102
RTVSPropertyOp7
 70
     1
102
RTVSPropertyOp8
 70
     1
102
RTVSPropertyOp9
 70
     1
102
RTVSPropertyOp10
 70
     1
102
RTVSPropertyOp11
 70
     1
102
RTVSPropertyOp12
 70
     1
102
RTVSPropertyOp13
 70
     1
102
RTVSPropertyOp14
 70
     1
102
RTVSPropertyOp15
 70
     1
102
RTVSPropertyOp16
 70
     1
102
RTVSPropertyOp17
 70
     1
102
RTVSPropertyOp18
 70
     1
102
RTVSPropertyOp19
 70
     1
102
RTVSPropertyOp20
 70
     1
102
RTVSPropertyOp21
 70
     1
102
RTVSPropertyOp22
 70
     1
102
RTVSPropertyOp23
 70
     1
102
RTVSPropertyOp24
 70
     1
102
RTVSPropertyOp25
 70
     1
102
RTVSPropertyOp26
 70
     1
102
RTVSPropertyOp27
 70
     1
  0
XRECORD
  5
308
102
{ACAD_REACTORS
330
307
102
}
330
307
100
AcDbXrecord
280
     1
102
RTVSPropertyOp0
 70
     1
102
RTVSPropertyOp1
 70
     1
102
RTVSPropertyOp2
 70
     1
102
RTVSPropertyOp3
 70
     1
102
RTVSPropertyOp4
 70
     1
102
RTVSPropertyOp5
 70
     1
102
RTVSPropertyOp6
 70
     1
102
RTVSPropertyOp7
 70
     1
102
RTVSPropertyOp8
 70
     1
102
RTVSPropertyOp9
 70
     1
102
RTVSPropertyOp10
 70
     1
102
RTVSPropertyOp11
 70
     1
102
RTVSPropertyOp12
 70
     1
102
RTVSPropertyOp13
 70
     1
102
RTVSPropertyOp14
 70
     1
102
RTVSPropertyOp15
 70
     1
102
RTVSPropertyOp16
 70
     1
102
RTVSPropertyOp17
 70
     1
102
RTVSPropertyOp18
 70
     1
102
RTVSPropertyOp19
 70
     1
102
RTVSPropertyOp20
 70
     1
102
RTVSPropertyOp21
 70
     1
102
RTVSPropertyOp22
 70
     1
102
RTVSPropertyOp23
 70
     1
102
RTVSPropertyOp24
 70
     1
102
RTVSPropertyOp25
 70
     1
102
RTVSPropertyOp26
 70
     1
102
RTVSPropertyOp27
 70
     1
  0
XRECORD
  5
31C
102
{ACAD_REACTORS
330
31B
102
}
330
31B
100
AcDbXrecord
280
     1
102
RTVSPropertyOp0
 70
     1
102
RTVSPropertyOp1
 70
     1
102
RTVSPropertyOp2
 70
     1
102
RTVSPropertyOp3
 70
     1
102
RTVSPropertyOp4
 70
     1
102
RTVSPropertyOp5
 70
     1
102
RTVSPropertyOp6
 70
     1
102
RTVSPropertyOp7
 70
     1
102
RTVSPropertyOp8
 70
     1
102
RTVSPropertyOp9
 70
     1
102
RTVSPropertyOp10
 70
     1
102
RTVSPropertyOp11
 70
     1
102
RTVSPropertyOp12
 70
     1
102
RTVSPropertyOp13
 70
     1
102
RTVSPropertyOp14
 70
     1
102
RTVSPropertyOp15
 70
     1
102
RTVSPropertyOp16
 70
     1
102
RTVSPropertyOp17
 70
     1
102
RTVSPropertyOp18
 70
     1
102
RTVSPropertyOp19
 70
     1
102
RTVSPropertyOp20
 70
     1
102
RTVSPropertyOp21
 70
     1
102
RTVSPropertyOp22
 70
     1
102
RTVSPropertyOp23
 70
     1
102
RTVSPropertyOp24
 70
     1
102
RTVSPropertyOp25
 70
     1
102
RTVSPropertyOp26
 70
     1
102
RTVSPropertyOp27
 70
     1
  0
XRECORD
  5
312
102
{ACAD_REACTORS
330
311
102
}
330
311
100
AcDbXrecord
280
     1
102
RTVSPropertyOp0
 70
     1
102
RTVSPropertyOp1
 70
     1
102
RTVSPropertyOp2
 70
     1
102
RTVSPropertyOp3
 70
     1
102
RTVSPropertyOp4
 70
     1
102
RTVSPropertyOp5
 70
     1
102
RTVSPropertyOp6
 70
     1
102
RTVSPropertyOp7
 70
     1
102
RTVSPropertyOp8
 70
     1
102
RTVSPropertyOp9
 70
     1
102
RTVSPropertyOp10
 70
     1
102
RTVSPropertyOp11
 70
     1
102
RTVSPropertyOp12
 70
     1
102
RTVSPropertyOp13
 70
     1
102
RTVSPropertyOp14
 70
     1
102
RTVSPropertyOp15
 70
     1
102
RTVSPropertyOp16
 70
     1
102
RTVSPropertyOp17
 70
     1
102
RTVSPropertyOp18
 70
     1
102
RTVSPropertyOp19
 70
     1
102
RTVSPropertyOp20
 70
     1
102
RTVSPropertyOp21
 70
     1
102
RTVSPropertyOp22
 70
     1
102
RTVSPropertyOp23
 70
     1
102
RTVSPropertyOp24
 70
     1
102
RTVSPropertyOp25
 70
     1
102
RTVSPropertyOp26
 70
     1
102
RTVSPropertyOp27
 70
     1
  0
XRECORD
  5
31A
102
{ACAD_REACTORS
330
319
102
}
330
319
100
AcDbXrecord
280
     1
102
RTVSPropertyOp0
 70
     1
102
RTVSPropertyOp1
 70
     1
102
RTVSPropertyOp2
 70
     1
102
RTVSPropertyOp3
 70
     1
102
RTVSPropertyOp4
 70
     1
102
RTVSPropertyOp5
 70
     1
102
RTVSPropertyOp6
 70
     1
102
RTVSPropertyOp7
 70
     1
102
RTVSPropertyOp8
 70
     1
102
RTVSPropertyOp9
 70
     1
102
RTVSPropertyOp10
 70
     1
102
RTVSPropertyOp11
 70
     1
102
RTVSPropertyOp12
 70
     1
102
RTVSPropertyOp13
 70
     1
102
RTVSPropertyOp14
 70
     1
102
RTVSPropertyOp15
 70
     1
102
RTVSPropertyOp16
 70
     1
102
RTVSPropertyOp17
 70
     1
102
RTVSPropertyOp18
 70
     1
102
RTVSPropertyOp19
 70
     1
102
RTVSPropertyOp20
 70
     1
102
RTVSPropertyOp21
 70
     1
102
RTVSPropertyOp22
 70
     1
102
RTVSPropertyOp23
 70
     1
102
RTVSPropertyOp24
 70
     1
102
RTVSPropertyOp25
 70
     1
102
RTVSPropertyOp26
 70
     1
102
RTVSPropertyOp27
 70
     1
  0
ENDSEC
  0
EOF
